<?xml version="1.0" standalone="no"?>
<!DOCTYPE svg PUBLIC "-//W3C//DTD SVG 1.1//EN" "http://www.w3.org/Graphics/SVG/1.1/DTD/svg11.dtd">
<svg xmlns="http://www.w3.org/2000/svg">
<defs >
<font id="Heebo" horiz-adv-x="1087" ><font-face
    font-family="Heebo Medium"
    units-per-em="2048"
    panose-1="0 0 6 0 0 0 0 0 0 0"
    ascent="2146"
    descent="-862"
    alphabetic="0" />
<glyph unicode=" " glyph-name="space" horiz-adv-x="510" />
<glyph unicode="!" glyph-name="exclam" horiz-adv-x="550" d="M173 432L148 1456H411L386 432H173ZM346 253T384 215T423 119Q423 61 385 24T282 -14Q217 -14 179 23T141 119Q141 177 179 215T282 253Q346 253 384 215Z" />
<glyph unicode="&quot;" glyph-name="quotedbl" horiz-adv-x="663" d="M239 1009H96V1536H275V1400L239 1009ZM543 1009H401V1536H579V1400L543 1009Z" />
<glyph unicode="#" glyph-name="numbersign" horiz-adv-x="1246" d="M969 879L912 570H1133V410H883L807 0H637L713 410H493L417 0H248L324 410H93V570H353L410 879H168V1040H440L517 1456H686L609 1040H830L907 1456H1076L999 1040H1209V879H969ZM800 879H580L522
570H743L800 879Z" />
<glyph unicode="$" glyph-name="dollar" horiz-adv-x="1166" d="M1064 210T960 107T672 -17V-212H513V-17Q399 -5 306 46T157 196T100 445H349Q349 305 418 245T588 184Q697 184 756 237T816 381Q816 466 762 521T579 622Q439 670 348 727T207 868T156 1073Q156
1184 202 1270T334 1408T533 1473V1691H693V1471Q865 1447 962 1326T1059 1005H810Q810 1130 756 1201T604 1272Q504 1272 454 1219T404 1074Q404 1017 426 977T501 903T645 835Q786 784 876 727T1015 587T1064 383Q1064 210 960 107Z" />
<glyph unicode="%" glyph-name="percent" horiz-adv-x="1505" d="M99 1259T136 1328T243 1437T408 1477Q505 1477 575 1437T682 1329T718 1176V1099Q718 1016 682 948T576 840T410 800Q314 800 244 840T136 948T99 1099V1176Q99 1259 136 1328ZM272 1036T307 992T410
948Q475 948 510 992T546 1099V1176Q546 1240 510 1284T408 1329Q343 1329 308 1285T272 1176V1099Q272 1036 307 992ZM333 182L1044 1320L1172 1247L461 109L333 182ZM799 440T836 508T943 617T1108 657Q1205 657 1275 617T1381 509T1418 357V279Q1418 196 1382
128T1276 19T1110 -21Q1014 -21 944 19T836 127T799 279V357Q799 440 836 508ZM971 239T987 205T1035 149T1110 128Q1180 128 1213 171T1246 279V357Q1246 421 1210 465T1108 509Q1043 509 1007 465T971 357V279Q971 239 987 205Z" />
<glyph unicode="&amp;" glyph-name="ampersand" horiz-adv-x="1314" d="M1012 0L931 96Q853 38 758 9T560 -20Q416 -20 308 32T142 179T84 393Q84 475 117 540T207 660T355 779Q280 875 243 950T205 1105Q205 1219 252 1303T387 1431T591 1476Q699 1476 781 1432T909
1313T954 1150Q954 1052 904 976T758 830L659 758L936 431Q997 553 997 697H1213Q1213 425 1086 254L1300 0H1012ZM517 1276T478 1229T438 1110Q438 1064 463 1015T538 903L625 961Q688 1003 713 1042T739 1140Q739 1175 721 1206T670 1256T590 1276Q517 1276 478
1229ZM627 180T684 200T793 258L479 628L450 607Q381 553 358 502T334 403Q334 339 361 289T442 209T568 180Q627 180 684 200Z" />
<glyph unicode="&apos;" glyph-name="quotesingle" horiz-adv-x="344" d="M242 1016H80V1536H268V1408L242 1016Z" />
<glyph unicode="(" glyph-name="parenleft" horiz-adv-x="715" d="M128 861T205 1078T397 1434T626 1629L675 1486Q591 1422 519 1306T399 1009T352 594V573Q352 338 399 158T518 -140T675 -325L626 -462Q512 -406 397 -267T205 89T128 575V592Q128 861 205 1078Z" />
<glyph unicode=")" glyph-name="parenright" horiz-adv-x="723" d="M596 310T518 93T322 -265T89 -462L40 -325Q123 -261 196 -143T316 156T363 573V594Q363 827 315 1009T193 1309T40 1492L89 1629Q205 1574 322 1433T517 1074T596 592V575Q596 310 518 93Z" />
<glyph unicode="*" glyph-name="asterisk" horiz-adv-x="909" d="M28 1059L83 1230L386 1112L371 1457H552L536 1105L834 1221L889 1048L577 960L779 694L632 587L451 876L273 596L126 699L333 971L28 1059Z" />
<glyph unicode="+" glyph-name="plus" horiz-adv-x="1139" d="M1065 577H687V146H447V577H67V803H447V1206H687V803H1065V577Z" />
<glyph unicode="," glyph-name="comma" horiz-adv-x="457" d="M353 -43T301 -152T163 -333L30 -256Q80 -174 106 -105T132 52V237H354L353 61Q353 -43 301 -152Z" />
<glyph unicode="-" glyph-name="hyphen" horiz-adv-x="689" d="M77 520V720H606V520H77Z" />
<glyph unicode="." glyph-name="period" horiz-adv-x="575" d="M345 262T384 223T423 124Q423 65 384 27T279 -12Q212 -12 173 26T134 124Q134 184 173 223T279 262Q345 262 384 223Z" />
<glyph unicode="/" glyph-name="slash" horiz-adv-x="805" d="M0 -125L569 1456H763L195 -125H0Z" />
<glyph unicode="0" glyph-name="zero" horiz-adv-x="1166" d="M1061 -20T584 -20Q357 -20 231 131T104 612V850Q104 1179 229 1327T582 1476Q810 1476 935 1328T1061 850V612Q1061 -20 584 -20ZM812 1097T755 1186T582 1276Q468 1276 411 1187T353 887V577Q353
367 411 274T584 180Q699 180 755 272T812 577V887Q812 1097 755 1186Z" />
<glyph unicode="1" glyph-name="one" horiz-adv-x="1166" d="M523 0V1162L168 1043V1251L741 1461H772V0H523Z" />
<glyph unicode="2" glyph-name="two" horiz-adv-x="1166" d="M108 0V172L582 686Q660 773 704 835T766 948T785 1048Q785 1150 729 1213T572 1276Q454 1276 392 1204T329 1011H80Q80 1140 139 1246T310 1414T575 1476Q720 1476 823 1427T980 1288T1034 1074Q1034
946 958 819T736 538L420 200H1090V0H108Z" />
<glyph unicode="3" glyph-name="three" horiz-adv-x="1166" d="M930 705T990 615T1050 408Q1050 275 986 178T810 31T557 -20Q428 -20 319 27T144 168T78 392H327Q327 330 356 282T438 207T561 180Q674 180 737 240T801 409Q801 529 732 587T536 645H391V782V841H536Q655
841 717 901T779 1062Q779 1164 724 1220T561 1276Q498 1276 448 1252T370 1182T341 1077H92Q92 1191 152 1282T318 1424T557 1476Q699 1476 805 1429T969 1289T1028 1062Q1028 970 970 883T805 748Q930 705 990 615Z" />
<glyph unicode="4" glyph-name="four" horiz-adv-x="1166" d="M1114 323H934V0H685V323H60L53 475L678 1456H877H934V523H1114V323ZM685 523V1119L667 1087L312 523H685Z" />
<glyph unicode="5" glyph-name="five" horiz-adv-x="1166" d="M250 1456H1036V1243H456L417 899Q459 922 517 939T644 956Q781 956 879 897T1030 728T1083 466Q1083 328 1030 218T868 44T603 -20Q478 -20 372 28T200 170T126 395H368Q381 292 442 236T602 180Q716
180 775 260T835 474Q835 602 769 679T579 757Q526 757 489 747T426 719T369 672L170 722L250 1456Z" />
<glyph unicode="6" glyph-name="six" horiz-adv-x="1166" d="M803 966T897 899T1037 721T1083 478Q1083 337 1026 224T862 45T608 -20Q456 -20 344 57T174 265T115 552V649Q115 879 190 1062T427 1355T838 1464H868V1259H851Q701 1259 598 1205T440 1059T370 845Q425
904 501 935T667 966Q803 966 897 899ZM676 181T728 218T808 321T836 472Q836 554 809 620T730 726T604 765Q523 765 458 720T365 606V529Q365 418 397 340T483 221T605 181Q676 181 728 218Z" />
<glyph unicode="7" glyph-name="seven" horiz-adv-x="1166" d="M501 0H239L818 1256H69V1456H1080V1318L501 0Z" />
<glyph unicode="8" glyph-name="eight" horiz-adv-x="1166" d="M936 701T999 609T1062 397Q1062 265 1000 171T830 29T583 -20Q445 -20 337 28T166 171T104 397Q104 517 166 609T338 751Q243 800 190 884T136 1072Q136 1199 193 1290T351 1428T583 1476Q714 1476
815 1429T973 1290T1030 1072Q1030 968 976 884T826 751Q936 701 999 609ZM492 1276T439 1219T385 1063Q385 966 438 907T583 848Q675 848 728 906T781 1063Q781 1158 728 1217T583 1276Q492 1276 439 1219ZM690 180T751 241T812 411Q812 482 784 535T703 618T581
648Q512 648 461 619T381 536T353 411Q353 303 414 242T583 180Q690 180 751 241Z" />
<glyph unicode="9" glyph-name="nine" horiz-adv-x="1166" d="M719 1476T827 1398T991 1185T1046 884V802Q1046 442 879 217T325 -8H305V200H323Q564 200 673 307T796 606Q740 547 667 513T513 479Q377 479 283 545T141 723T93 967Q93 1109 149 1225T313 1408T566
1476Q719 1476 827 1398ZM643 674T704 716T798 827V925Q798 1036 767 1115T682 1234T565 1275Q495 1275 444 1235T366 1126T339 974Q339 893 364 825T441 715T567 674Q643 674 704 716Z" />
<glyph unicode=":" glyph-name="colon" horiz-adv-x="548" d="M596 262T635 223T674 124Q674 65 635 27T530 -12Q463 -12 424 26T385 124Q385 184 424 223T530 262Q596 262 635 223ZM340 1107T379 1068T418 969Q418 910 379 872T274 833Q207 833 168 871T129 969Q129
1029 168 1068T274 1107Q340 1107 379 1068Z" />
<glyph unicode=";" glyph-name="semicolon" horiz-adv-x="494" d="M319 1107T358 1068T397 969Q397 910 358 872T253 833Q186 833 147 871T108 969Q108 1029 147 1068T253 1107Q319 1107 358 1068ZM372 -43T320 -152T182 -333L49 -256Q99 -174 125 -105T151 52V237H373L372
61Q372 -43 320 -152Z" />
<glyph unicode="&lt;" glyph-name="less" horiz-adv-x="1042" d="M903 855L315 630L903 409V161L62 533V697V731L903 1102V855Z" />
<glyph unicode="=" glyph-name="equal" horiz-adv-x="1150" d="M144 776V982H1011V776H144ZM144 351V557H1011V351H144Z" />
<glyph unicode="&gt;" glyph-name="greater" horiz-adv-x="1065" d="M992 732V566V533L128 161V406L741 635L128 859V1102L992 732Z" />
<glyph unicode="?" glyph-name="question" horiz-adv-x="1000" d="M351 526T366 589T415 704T512 816Q573 874 603 907T653 983T674 1079Q674 1171 629 1220T496 1269Q418 1269 363 1224T307 1090H58Q60 1214 117 1301T272 1432T496 1476Q630 1476 726 1431T873
1298T924 1089Q924 1006 891 936T807 808T674 674Q623 626 603 569T581 431H350Q351 526 366 589ZM537 255T575 217T613 121Q613 63 575 26T472 -12Q407 -12 369 25T331 121Q331 179 369 217T472 255Q537 255 575 217Z" />
<glyph unicode="@" glyph-name="at" horiz-adv-x="1833" d="M1209 1424T1384 1321T1650 1028T1741 582Q1741 542 1740 521Q1735 380 1689 257T1550 57T1314 -21Q1226 -21 1164 19T1072 132Q1022 58 954 20T811 -19Q724 -19 660 26T562 154T528 350Q528 372 532
424Q549 593 613 721T775 920T982 990Q1053 990 1105 976T1195 941T1283 882L1231 317Q1229 287 1229 274Q1229 190 1261 157T1344 124Q1413 124 1465 175T1546 316T1580 517Q1582 563 1582 586Q1582 912 1427 1092T961 1272Q759 1272 608 1170T371 887T275 470Q274
448 274 406Q274 182 346 24T558 -216T895 -298Q982 -298 1072 -278T1226 -226L1265 -364Q1198 -407 1095 -430T891 -453Q642 -453 464 -352T191 -57T97 408Q97 449 98 470Q110 744 219 960T521 1300T965 1424Q1209 1424 1384 1321ZM920 148T969 191T1051 325L1095
815Q1049 833 1000 833Q889 833 820 728T731 424Q728 391 728 361Q728 257 765 203T872 148Q920 148 969 191Z" />
<glyph unicode="A" glyph-name="A" horiz-adv-x="1365" d="M963 334H404L288 0H17L566 1456H738H799L1350 0H1079L963 334ZM890 543L683 1140L476 543H890Z" />
<glyph unicode="B" glyph-name="B" horiz-adv-x="1295" d="M1066 726T1128 636T1190 426Q1190 219 1057 110T683 0H244H146V1456H646Q892 1456 1024 1359T1156 1062Q1156 960 1102 880T945 758Q1066 726 1128 636ZM405 1247V844H648Q767 844 832 897T898 1046Q898
1152 837 1199T646 1247H405ZM803 208T867 267T932 426Q932 654 694 654H405V208H683Q803 208 867 267Z" />
<glyph unicode="C" glyph-name="C" horiz-adv-x="1338" d="M1248 330T1180 218T987 43T689 -20Q510 -20 377 64T172 305T100 670V785Q100 994 173 1150T382 1391T699 1476Q870 1476 991 1413T1179 1236T1262 973H1004Q987 1119 918 1192T699 1266Q532 1266 447
1143T361 787V670Q361 442 440 316T689 190Q793 190 858 222T957 317T1003 476H1261Q1248 330 1180 218Z" />
<glyph unicode="D" glyph-name="D" horiz-adv-x="1337" d="M772 1456T921 1370T1152 1127T1235 763V692Q1235 484 1153 328T919 86T568 0H260H146V1456H405H578Q772 1456 921 1370ZM975 765Q975 999 873 1123T578 1247H405V208H568Q768 208 871 334T975 692V765Z" />
<glyph unicode="E" glyph-name="E" horiz-adv-x="1158" d="M1101 208V0H336H146V1456H405H1095V1247H405V852H1000V648H405V208H1101Z" />
<glyph unicode="F" glyph-name="F" horiz-adv-x="1125" d="M405 1247V822H990V614H405V0H146V1456H405H1074V1247H405Z" />
<glyph unicode="G" glyph-name="G" horiz-adv-x="1395" d="M1203 106T1074 43T728 -20Q543 -20 403 63T184 304T105 680V775Q105 996 177 1153T384 1393T706 1476Q963 1476 1100 1351T1266 1009H1012Q971 1268 711 1268Q539 1268 453 1142T366 777V680Q366 523
410 413T537 245T737 188Q851 188 912 212T1008 273V554H712V750H1267V189Q1203 106 1074 43Z" />
<glyph unicode="H" glyph-name="H" horiz-adv-x="1455" d="M1306 1456V0H1048V645H405V0H146V1456H405V852H1048V1456H1306Z" />
<glyph unicode="I" glyph-name="I" horiz-adv-x="581" d="M162 0V1456H420V0H162Z" />
<glyph unicode="J" glyph-name="J" horiz-adv-x="1138" d="M999 1456V437Q999 296 938 193T769 35T522 -20Q380 -20 273 28T106 174T45 418H304Q304 298 362 243T522 188Q621 188 681 253T741 437V1456H999Z" />
<glyph unicode="K" glyph-name="K" horiz-adv-x="1293" d="M569 624L405 450V0H146V1456H405V776L545 950L963 1456H1278L740 812L1306 0H998L569 624Z" />
<glyph unicode="L" glyph-name="L" horiz-adv-x="1109" d="M1063 208V0H336H146V1456H405V208H1063Z" />
<glyph unicode="M" glyph-name="M" horiz-adv-x="1793" d="M1645 0H1387V470L1412 1117L988 0H803L379 1116L405 470V0H146V1456H366H482L896 348L1309 1456H1645V0Z" />
<glyph unicode="N" glyph-name="N" horiz-adv-x="1454" d="M1046 0L405 1024V0H146V1456H405L1048 430V1456H1305V0H1046Z" />
<glyph unicode="O" glyph-name="O" horiz-adv-x="1414" d="M1313 473T1238 313T1025 66T708 -20Q530 -20 392 66T177 313T100 691V764Q100 981 176 1142T390 1389T706 1476Q886 1476 1023 1390T1237 1143T1313 764V691Q1313 473 1238 313ZM1053 1007T963 1134T706
1262Q599 1262 521 1205T402 1037T360 766V691Q360 532 402 420T522 251T708 193Q874 193 963 321T1053 691V766Q1053 1007 963 1134Z" />
<glyph unicode="P" glyph-name="P" horiz-adv-x="1311" d="M870 1456T990 1397T1174 1232T1237 991Q1237 850 1175 748T993 592T705 538H405V0H146V1456H705Q870 1456 990 1397ZM844 746T910 811T977 989Q977 1059 948 1117T858 1211T705 1247H405V746H705Q844
746 910 811Z" />
<glyph unicode="Q" glyph-name="Q" horiz-adv-x="1414" d="M1140 -253L831 -8Q770 -20 702 -20Q524 -20 387 66T172 313T95 691V764Q95 981 171 1142T385 1389T700 1476Q881 1476 1018 1390T1232 1143T1308 764V691Q1308 489 1243 336T1059 92L1308 -103L1140
-253ZM355 532T397 420T517 251T702 193Q868 193 958 321T1048 691V766Q1048 1007 958 1134T700 1262Q593 1262 516 1205T397 1037T355 766V691Q355 532 397 420Z" />
<glyph unicode="R" glyph-name="R" horiz-adv-x="1283" d="M1249 13V0H971L682 558H405V0H146V1456H662Q914 1456 1051 1343T1189 1017Q1189 873 1120 773T924 619L1249 13ZM405 766H663Q793 766 861 831T930 1004Q930 1119 864 1183T662 1247H405V766Z" />
<glyph unicode="S" glyph-name="S" horiz-adv-x="1240" d="M369 697T244 801T119 1072Q119 1189 184 1281T368 1424T638 1476Q797 1476 916 1417T1100 1256T1164 1031H906Q906 1140 838 1205T635 1270Q509 1270 444 1216T378 1073Q378 995 452 941T685 841Q851
792 956 729T1114 580T1166 379Q1166 257 1102 167T921 29T646 -20Q500 -20 369 32T156 190T74 443H333Q333 312 418 249T646 185Q772 185 839 237T906 377Q906 437 881 477T791 553T599 626Q369 697 244 801Z" />
<glyph unicode="T" glyph-name="T" horiz-adv-x="1247" d="M1204 1247H751V0H493V1247H45V1456H751H1204V1247Z" />
<glyph unicode="U" glyph-name="U" horiz-adv-x="1337" d="M1216 485Q1216 323 1145 209T949 38T670 -20Q511 -20 388 37T195 208T125 485V1456H383V485Q383 335 458 262T670 188Q808 188 882 261T957 485V1456H1216V485Z" />
<glyph unicode="V" glyph-name="V" horiz-adv-x="1327" d="M1312 1456L790 0H597H537L17 1456H301L663 323L1027 1456H1312Z" />
<glyph unicode="W" glyph-name="W" horiz-adv-x="1801" d="M1765 1456L1431 0H1258H1180L909 1053L632 0H468H381L47 1456H304L527 370L800 1456H958H1017L1287 367L1507 1456H1765Z" />
<glyph unicode="X" glyph-name="X" horiz-adv-x="1297" d="M951 1456H1250L812 734L1261 0H959L650 531L341 0H39L488 734L49 1456H348L650 934L951 1456Z" />
<glyph unicode="Y" glyph-name="Y" horiz-adv-x="1251" d="M955 1456H1242L755 535V0H494V535L7 1456H294L624 771L955 1456Z" />
<glyph unicode="Z" glyph-name="Z" horiz-adv-x="1235" d="M1167 208V0H159H79V166L829 1247H84V1456H1047H1144V1295L395 208H1167Z" />
<glyph unicode="[" glyph-name="bracketleft" horiz-adv-x="563" d="M380 1486V-133H542V-327H131V1681H542V1486H380Z" />
<glyph unicode="\" glyph-name="backslash" horiz-adv-x="857" d="M265 1456L873 -125H625L18 1456H265Z" />
<glyph unicode="]" glyph-name="bracketright" horiz-adv-x="563" d="M425 1681V-327H13V-133H176V1486H13V1681H425Z" />
<glyph unicode="^" glyph-name="asciicircum" horiz-adv-x="878" d="M617 729L439 1190L262 729H52L351 1456H495H528L826 729H617Z" />
<glyph unicode="_" glyph-name="underscore" horiz-adv-x="923" d="M3 -196V0H920V-196H3Z" />
<glyph unicode="`" glyph-name="grave" horiz-adv-x="662" d="M321 1233L50 1536H332L528 1233H321Z" />
<glyph unicode="a" glyph-name="a" horiz-adv-x="1107" d="M980 104T1021 17V0H767Q751 35 739 101Q688 46 617 13T456 -20Q350 -20 266 22T135 138T88 304Q88 477 216 569T581 661H731V731Q731 817 684 865T545 914Q490 914 448 895T383 843T360 769H111Q111
856 166 932T324 1055T559 1102Q683 1102 778 1060T926 934T980 729V252Q980 104 1021 17ZM582 179T642 216T731 305V507H601Q471 507 404 460T337 328Q337 262 381 221T504 179Q582 179 642 216Z" />
<glyph unicode="b" glyph-name="b" horiz-adv-x="1153" d="M789 1102T884 1033T1028 839T1076 551V530Q1076 368 1028 244T884 50T655 -20Q467 -20 360 117L348 0H123V1536H372V979Q476 1102 653 1102Q789 1102 884 1033ZM827 551Q827 708 773 803T590 899Q435
899 372 763V321Q436 183 592 183Q717 183 772 276T827 530V551Z" />
<glyph unicode="c" glyph-name="c" horiz-adv-x="1072" d="M1014 360Q1011 256 951 169T791 31T572 -20Q411 -20 300 52T133 247T78 524V558Q78 711 133 834T300 1030T571 1102Q700 1102 799 1051T955 906T1014 693H779Q776 751 750 798T678 874T568 902Q435 902
381 805T327 558V524Q327 180 569 180Q626 180 673 203T748 267T779 360H1014Z" />
<glyph unicode="d" glyph-name="d" horiz-adv-x="1157" d="M1029 1536V0H804L792 113Q684 -20 503 -20Q375 -20 279 51T130 247T78 529V550Q78 714 129 839T277 1033T505 1102Q675 1102 780 983V1536H1029ZM714 184T780 314V772Q715 899 568 899Q446 899 387 802T327
550V529Q327 375 385 280T566 184Q714 184 780 314Z" />
<glyph unicode="e" glyph-name="e" horiz-adv-x="1100" d="M1038 463H333Q340 380 376 316T473 216T617 180Q785 180 887 312L1020 183Q961 96 856 38T602 -20Q444 -20 326 48T145 236T82 503V544Q82 711 146 837T322 1033T574 1102Q727 1102 831 1035T986 848T1038
568V463ZM792 662Q787 767 735 834T573 902Q475 902 415 834T338 643H792V662Z" />
<glyph unicode="f" glyph-name="f" horiz-adv-x="727" d="M547 1353T502 1309T457 1184V1082H676V898H457V0H208V898H43V1082H208V1184Q208 1303 254 1387T386 1514T590 1557Q656 1557 728 1539L722 1344Q683 1353 629 1353Q547 1353 502 1309Z" />
<glyph unicode="g" glyph-name="g" horiz-adv-x="1162" d="M1040 1082V31Q1040 -113 978 -216T804 -372T545 -426Q479 -426 403 -408T257 -349T141 -248L257 -99Q314 -165 384 -197T531 -230Q653 -230 722 -164T791 26V98Q686 -20 513 -20Q383 -20 285 51T134
247T80 529V550Q80 714 133 839T284 1033T515 1102Q701 1102 804 975L814 1082H1040ZM724 184T791 307V778Q724 899 578 899Q495 899 439 853T356 728T329 550V529Q329 376 391 280T576 184Q724 184 791 307Z" />
<glyph unicode="h" glyph-name="h" horiz-adv-x="1139" d="M1020 1102T1020 695V0H771V697Q771 806 725 852T582 899Q510 899 456 866T368 774V0H119V1536H368V964Q424 1030 500 1066T667 1102Q1020 1102 1020 695Z" />
<glyph unicode="i" glyph-name="i" horiz-adv-x="526" d="M329 1496T367 1459T405 1363Q405 1306 367 1269T264 1232Q199 1232 161 1268T123 1363Q123 1421 161 1458T264 1496Q329 1496 367 1459ZM139 0V1082H388V0H139Z" />
<glyph unicode="j" glyph-name="j" horiz-adv-x="516" d="M319 1496T357 1459T395 1363Q395 1306 357 1269T254 1232Q189 1232 151 1268T113 1363Q113 1421 151 1458T254 1496Q319 1496 357 1459ZM383 -91Q383 -259 299 -348T53 -437Q-16 -437 -78 -420V-224Q-32
-232 10 -232Q72 -232 103 -199T134 -91V1082H383V-91Z" />
<glyph unicode="k" glyph-name="k" horiz-adv-x="1072" d="M481 462L372 351V0H124V1536H372V655L446 747L742 1082H1042L641 632L1084 0H796L481 462Z" />
<glyph unicode="l" glyph-name="l" horiz-adv-x="526" d="M139 0V1536H388V0H139Z" />
<glyph unicode="m" glyph-name="m" horiz-adv-x="1781" d="M1476 1102T1567 1006T1658 700V0H1409V701Q1409 812 1362 855T1219 899Q1141 899 1089 857T1014 744L1015 721V0H766V698Q766 807 718 853T575 899Q432 899 372 782V0H123V1082H357L365 968Q420 1033
498 1067T677 1102Q779 1102 855 1062T972 937Q1027 1015 1111 1058T1304 1102Q1476 1102 1567 1006Z" />
<glyph unicode="n" glyph-name="n" horiz-adv-x="1140" d="M841 1102T930 1007T1020 698V0H771V700Q771 808 725 853T582 899Q512 899 457 865T369 770V0H120V1082H354L362 957Q420 1027 500 1064T676 1102Q841 1102 930 1007Z" />
<glyph unicode="o" glyph-name="o" horiz-adv-x="1165" d="M78 709T138 834T313 1030T581 1102Q737 1102 851 1031T1026 834T1087 551V530Q1087 372 1027 247T852 51T583 -20Q428 -20 314 51T139 247T78 530V551Q78 709 138 834ZM327 376T391 278T583 180Q668
180 725 226T810 352T838 530V551Q838 649 811 728T725 855T581 902Q496 902 439 855T355 729T327 551V530Q327 376 391 278Z" />
<glyph unicode="p" glyph-name="p" horiz-adv-x="1153" d="M786 1102T881 1034T1026 842T1075 552V531Q1075 372 1026 247T881 51T654 -20Q480 -20 372 97V-416H123V1082H352L362 973Q471 1102 651 1102Q786 1102 881 1034ZM826 552Q826 706 766 802T582 899Q436
899 372 778V303Q437 180 584 180Q706 180 766 278T826 531V552Z" />
<glyph unicode="q" glyph-name="q" horiz-adv-x="1163" d="M1029 1082V-416H780V93Q673 -20 505 -20Q373 -20 277 51T129 247T78 530V551Q78 716 128 840T276 1033T507 1102Q686 1102 793 975L807 1082H1029ZM712 180T780 301V786Q748 841 696 871T571 902Q448
902 388 804T327 551V530Q327 376 387 278T569 180Q712 180 780 301Z" />
<glyph unicode="r" glyph-name="r" horiz-adv-x="724" d="M631 1102T657 1098T697 1089L695 854Q645 862 596 862Q429 862 372 737V0H123V1082H360L367 960Q408 1028 469 1065T610 1102Q631 1102 657 1098Z" />
<glyph unicode="s" glyph-name="s" horiz-adv-x="1057" d="M311 491T210 567T109 773Q109 862 160 937T307 1057T528 1102Q661 1102 759 1057T911 934T964 757H715Q715 800 694 836T630 895T528 917Q443 917 397 879T351 784Q351 748 370 723T438 678T571 640Q703
612 790 572T924 468T971 308Q971 213 917 138T762 22T531 -20Q389 -20 285 32T127 167T73 342H314Q318 251 381 208T535 165Q626 165 676 200T727 295Q727 333 709 360T641 410T497 452Q311 491 210 567Z" />
<glyph unicode="t" glyph-name="t" horiz-adv-x="683" d="M585 186T630 196V4Q558 -20 468 -20Q336 -20 260 53T184 286V898H8V1082H184V1346H433V1082H623V898H433V303Q433 235 461 211T545 186Q585 186 630 196Z" />
<glyph unicode="u" glyph-name="u" horiz-adv-x="1139" d="M1019 1082V0H784L778 107Q672 -20 475 -20Q307 -20 212 78T117 383V1082H366V381Q366 275 412 230T535 184Q708 184 769 307V1082H1019Z" />
<glyph unicode="v" glyph-name="v" horiz-adv-x="1017" d="M991 1082L617 0H457H398L22 1082H280L509 315L733 1082H991Z" />
<glyph unicode="w" glyph-name="w" horiz-adv-x="1520" d="M1483 1082L1190 0H1032H985L756 734L531 0H390H326L33 1082H275L446 351L665 1082H824H851L1072 342L1241 1082H1483Z" />
<glyph unicode="x" glyph-name="x" horiz-adv-x="1032" d="M718 1082H992L665 550L1004 0H730L517 366L305 0H30L369 550L42 1082H316L515 731L718 1082Z" />
<glyph unicode="y" glyph-name="y" horiz-adv-x="1001" d="M988 1082L557 -164Q516 -276 440 -356T221 -437Q172 -437 102 -419V-228L148 -230Q237 -230 283 -199T357 -88L391 4L11 1082H280L505 356L723 1082H988Z" />
<glyph unicode="z" glyph-name="z" horiz-adv-x="1032" d="M962 200V0H159H81V162L625 881H92V1082H845H941V926L393 200H962Z" />
<glyph unicode="{" glyph-name="braceleft" horiz-adv-x="686" d="M479 -18T519 -101T656 -217L607 -360Q413 -306 330 -186T247 106V309Q247 413 200 470T55 528V672V710Q153 710 200 767T247 929V1132Q247 1303 330 1423T607 1597L656 1455Q560 1423 520 1340T479
1132V929Q479 826 437 746T307 619Q394 573 436 493T479 309V106Q479 -18 519 -101Z" />
<glyph unicode="|" glyph-name="bar" horiz-adv-x="515" d="M174 -270V1456H343V-270H174Z" />
<glyph unicode="}" glyph-name="braceright" horiz-adv-x="686" d="M438 824T484 767T629 710V572V528Q531 528 485 471T438 309V106Q438 -65 355 -185T78 -360L29 -217Q125 -185 165 -102T205 106V309Q205 415 250 495T388 619Q296 663 251 743T205 929V1132Q205
1256 165 1339T29 1455L78 1597Q272 1543 355 1423T438 1132V929Q438 824 484 767Z" />
<glyph unicode="~" glyph-name="asciitilde" horiz-adv-x="1357" d="M1241 673T1199 582T1080 438T909 386Q829 386 765 417T622 521Q574 567 535 588T454 610Q389 610 351 559T312 424H116Q116 540 158 629T275 768T446 817Q526 817 593 785T735 683Q784 636
822 615T901 594Q945 594 979 619T1031 688T1050 787L1241 788Q1241 673 1199 582Z" />
<glyph unicode="&#xa1;" glyph-name="exclamdown" horiz-adv-x="548" d="M210 834T172 872T133 968Q133 1026 171 1063T275 1101Q339 1101 377 1064T415 968Q415 910 377 872T275 834Q210 834 172 872ZM384 659L409 -365H145L170 659H384Z" />
<glyph unicode="&#xa2;" glyph-name="cent" horiz-adv-x="1153" d="M649 180T696 203T771 267T802 360H1036Q1034 270 989 192T865 61T689 -11V-245H489V-11Q362 12 275 87T144 276T101 524V558Q101 693 144 806T275 994T489 1093V1318H689V1094Q792 1077 869
1022T990 883T1036 693H802Q799 751 773 798T701 874T591 902Q458 902 404 805T350 558V524Q350 180 592 180Q649 180 696 203Z" />
<glyph unicode="&#xa3;" glyph-name="sterling" horiz-adv-x="1207" d="M1150 208L1149 0H99V208H182Q227 219 245 279T263 415L257 596H95V800H250L242 1039Q242 1174 299 1273T460 1424T696 1476Q833 1476 931 1426T1081 1284T1133 1071H882Q882 1173 827 1220T687
1268Q634 1268 592 1242T525 1163T501 1039L510 800H821V596H517L524 424Q524 289 460 208H1150Z" />
<glyph unicode="&#xa4;" glyph-name="currency" horiz-adv-x="1435" d="M1317 512T1292 424T1219 259L1358 118L1216 -27L1084 108Q1008 46 916 13T722 -20Q622 -20 530 12T362 106L233 -26L92 118L227 256Q179 332 153 421T127 608Q127 710 155 802T236 973L92
1120L233 1264L375 1119Q450 1175 538 1204T722 1234Q819 1234 907 1204T1071 1117L1216 1265L1358 1120L1210 970Q1261 893 1289 801T1317 608Q1317 512 1292 424ZM834 166T927 225T1076 385T1131 608Q1131 729 1076 830T928 989T722 1048Q610 1048 516 990T367
830T312 608Q312 487 367 386T516 225T722 166Q834 166 927 225Z" />
<glyph unicode="&#xa5;" glyph-name="yen" horiz-adv-x="1090" d="M739 742H971V587H670V452H971V298H670V0H412V298H104V452H412V587H104V742H352L12 1456H290L546 854L803 1456H1078L739 742Z" />
<glyph unicode="&#xa6;" glyph-name="brokenbar" horiz-adv-x="510" d="M136 698V1456H369V698H136ZM136 525H369V-270H136V525Z" />
<glyph unicode="&#xa7;" glyph-name="section" horiz-adv-x="1275" d="M1065 135T1098 66T1132 -101Q1132 -218 1070 -301T893 -428T626 -472Q482 -472 362 -431T166 -295T90 -48L339 -47Q339 -166 422 -218T626 -271Q748 -271 815 -225T883 -102Q883 -50 855
-15T759 50T566 117Q407 160 306 211T149 343T94 542Q94 632 138 702T263 815Q196 866 163 935T129 1101Q129 1214 191 1299T369 1430T636 1477Q794 1477 908 1427T1084 1281T1145 1048H896Q896 1113 866 1165T777 1247T636 1277Q508 1277 443 1228T378 1103Q378
1046 404 1011T495 947T692 883Q855 840 957 789T1113 658T1167 459Q1167 367 1124 298T998 186Q1065 135 1098 66ZM343 499T368 463T459 396T657 328Q739 306 811 280Q863 303 891 345T920 442Q920 495 891 532T795 602T602 672Q512 696 446 721Q394 700 369 658T343
559Q343 499 368 463Z" />
<glyph unicode="&#xa8;" glyph-name="dieresis" horiz-adv-x="909" d="M279 1486T314 1452T350 1366Q350 1315 315 1282T222 1248Q164 1248 129 1281T94 1366Q94 1418 129 1452T222 1486Q279 1486 314 1452ZM740 1485T775 1451T811 1365Q811 1314 776 1280T683
1246Q625 1246 590 1280T555 1365Q555 1417 590 1451T683 1485Q740 1485 775 1451Z" />
<glyph unicode="&#xa9;" glyph-name="copyright" horiz-adv-x="1605" d="M990 1476T1153 1378T1411 1108T1507 729Q1507 521 1412 350T1153 79T797 -21Q603 -21 441 78T183 349T87 729Q87 937 182 1108T440 1377T797 1476Q990 1476 1153 1378ZM957 104T1091 186T1305
412T1384 729Q1384 902 1305 1044T1092 1269T797 1351Q636 1351 502 1269T288 1045T209 729Q209 556 288 413T502 187T797 104Q957 104 1091 186ZM1118 442T1030 362T783 282Q677 282 598 330T477 466T434 669V788Q434 902 476 990T598 1126T783 1175Q941 1175
1030 1096T1119 862H963Q963 956 919 998T783 1040Q690 1040 640 972T589 789V669Q589 554 639 486T783 417Q874 417 918 459T962 596H1118Q1118 442 1030 362Z" />
<glyph unicode="&#xaa;" glyph-name="ordfeminine" horiz-adv-x="913" d="M608 706Q597 740 591 774Q557 737 507 715T390 692Q272 692 207 753T141 920Q141 1032 226 1091T482 1151H584V1202Q584 1264 555 1296T468 1329Q403 1329 367 1304T330 1230L157 1244Q157
1311 195 1364T305 1447T468 1477Q603 1477 681 1406T759 1201V887Q759 785 785 706H608ZM316 882T345 859T433 836Q472 836 514 853T584 897V1034H483Q401 1034 359 1003T316 924Q316 882 345 859Z" />
<glyph unicode="&#xab;" glyph-name="guillemotleft" horiz-adv-x="998" d="M552 537L798 137H628L341 527V540V546L628 936H798L552 537ZM659 537L905 137H735L448 527V540V546L735 936H905L659 537Z" />
<glyph unicode="&#xac;" glyph-name="logicalnot" horiz-adv-x="1133" d="M962 805V634V374H762V634H127V805H962Z" />
<glyph unicode="&#xad;" glyph-name="uni00AD" horiz-adv-x="600" d="M77 520V720H606V520H77Z" />
<glyph unicode="&#xae;" glyph-name="registered" horiz-adv-x="1605" d="M990 1476T1153 1378T1411 1108T1507 729Q1507 521 1412 350T1153 79T797 -21Q603 -21 441 78T183 349T87 729Q87 937 182 1108T440 1377T797 1476Q990 1476 1153 1378ZM957 104T1091 186T1305
412T1384 729Q1384 902 1305 1044T1092 1269T797 1351Q636 1351 502 1269T288 1045T209 729Q209 556 288 413T502 187T797 104Q957 104 1091 186ZM1105 459Q1105 371 1122 332V316H967Q954 350 954 460V514Q954 586 921 619T811 653H653V316H502V1166H783Q935 1166
1021 1100T1108 906Q1108 790 990 727Q1105 673 1105 515V459ZM865 788T911 818T958 903Q958 952 942 980T887 1020T783 1033H653V787H796Q865 788 911 818Z" />
<glyph unicode="&#xaf;" glyph-name="overscore" horiz-adv-x="993" d="M157 1292V1451H844V1292H157Z" />
<glyph unicode="&#xb0;" glyph-name="degree" horiz-adv-x="781" d="M463 1477T523 1441T618 1342T654 1207Q654 1134 619 1073T523 977T393 941Q322 941 261 976T163 1073T127 1207Q127 1279 163 1341T260 1440T393 1477Q463 1477 523 1441ZM444 1083T479 1118T514
1207Q514 1262 479 1298T393 1335Q359 1335 330 1318T284 1272T267 1207Q267 1172 284 1144T330 1100T393 1083Q444 1083 479 1118Z" />
<glyph unicode="&#xb1;" glyph-name="plusminus" horiz-adv-x="1099" d="M1010 905V701H669V315H449V701H94V905H449V1277H669V905H1010ZM124 203H975V1H124V203Z" />
<glyph unicode="&#xb2;" glyph-name="uni00B2" horiz-adv-x="759" d="M78 667V794L365 1057Q421 1107 448 1150T475 1223Q475 1265 448 1290T371 1316Q311 1316 280 1283T249 1198H60Q60 1272 97 1333T203 1431T364 1467Q506 1467 585 1403T665 1224Q665 1169
642 1123T576 1033T458 927L322 818H691V667H78Z" />
<glyph unicode="&#xb3;" glyph-name="uni00B3" horiz-adv-x="759" d="M683 1032T683 888Q683 816 641 764T526 684T361 656Q281 656 211 681T98 761T54 897H244Q244 859 279 833T371 807Q431 807 462 833T494 903Q494 956 459 980T357 1004H269V1089V1134H357Q418
1134 449 1159T480 1230Q480 1267 452 1291T366 1316Q318 1316 287 1297T255 1244H66Q66 1313 105 1363T212 1440T361 1467Q502 1467 585 1409T669 1242Q669 1185 634 1141T534 1072Q683 1032 683 888Z" />
<glyph unicode="&#xb4;" glyph-name="acute" horiz-adv-x="669" d="M588 1536L312 1233H111L307 1536H588Z" />
<glyph unicode="&#xb6;" glyph-name="paragraph" horiz-adv-x="1006" d="M645 520H562Q407 520 296 580T128 746T70 988Q70 1123 127 1229T296 1395T562 1456H856V0H645V520Z" />
<glyph unicode="&#xb7;" glyph-name="middot" horiz-adv-x="583" d="M353 850T392 812T431 713Q431 654 392 616T286 577Q219 577 181 615T142 713Q142 773 180 811T286 850Q353 850 392 812Z" />
<glyph unicode="&#xb8;" glyph-name="cedilla" horiz-adv-x="531" d="M311 -51Q375 -62 418 -103T461 -224Q461 -292 424 -343T312 -422T131 -450L124 -308Q185 -308 221 -287T258 -220Q258 -177 224 -160T108 -136L140 4H322L311 -51Z" />
<glyph unicode="&#xb9;" glyph-name="uni00B9" horiz-adv-x="759" d="M329 667V1235L130 1187V1335L497 1455H516V667H329Z" />
<glyph unicode="&#xba;" glyph-name="ordmasculine" horiz-adv-x="936" d="M119 1225T161 1305T282 1431T465 1477Q571 1477 649 1432T770 1306T812 1122V1045Q812 942 770 862T650 736T467 691Q362 691 283 736T162 861T119 1045V1122Q119 1225 161 1305ZM294
952T338 895T467 837Q550 837 593 894T637 1045V1122Q637 1214 593 1271T465 1329Q382 1329 338 1272T294 1122V1045Q294 952 338 895Z" />
<glyph unicode="&#xbb;" glyph-name="guillemotright" horiz-adv-x="998" d="M549 546V533V527L262 137H92L338 536L92 936H262L549 546ZM925 546V533V527L638 137H468L714 536L468 936H638L925 546Z" />
<glyph unicode="&#xbf;" glyph-name="questiondown" horiz-adv-x="1000" d="M452 835T414 873T376 969Q376 1027 414 1064T517 1102Q581 1102 619 1065T657 969Q657 911 619 873T517 835Q452 835 414 873ZM634 565T619 503T571 390T475 277L456 257Q407 208 380
175T334 99T316 5Q316 -86 363 -132T498 -179Q579 -179 633 -133T689 3H939Q937 -121 880 -208T725 -341T501 -386Q365 -386 268 -341T119 -209T67 1Q67 84 100 156T183 285T314 420Q366 468 384 523T404 659H635Q634 565 619 503Z" />
<glyph unicode="&#xc0;" glyph-name="Agrave" horiz-adv-x="1365" d="M963 334H404L288 0H17L566 1456H738H799L1350 0H1079L963 334ZM890 543L683 1140L476 543H890ZM608 1543L337 1846H618L814 1543H608Z" />
<glyph unicode="&#xc1;" glyph-name="Aacute" horiz-adv-x="1365" d="M963 334H404L288 0H17L566 1456H738H799L1350 0H1079L963 334ZM890 543L683 1140L476 543H890ZM1041 1846L764 1543H564L759 1846H1041Z" />
<glyph unicode="&#xc2;" glyph-name="Acircumflex" horiz-adv-x="1365" d="M963 334H404L288 0H17L566 1456H738H799L1350 0H1079L963 334ZM890 543L683 1140L476 543H890ZM1036 1558H837L686 1713L536 1558H340V1571L613 1847H759L1036 1569V1558Z" />
<glyph unicode="&#xc3;" glyph-name="Atilde" horiz-adv-x="1365" d="M963 334H404L288 0H17L566 1456H738H799L1350 0H1079L963 334ZM890 543L683 1140L476 543H890ZM1054 1752T1025 1693T945 1601T830 1567Q784 1567 753 1579T680 1615Q646 1636 620 1646T560
1656Q521 1656 496 1628T470 1554L318 1562Q318 1634 347 1694T427 1788T541 1823Q578 1823 608 1812T681 1778Q721 1756 749 1745T812 1734Q850 1734 876 1762T903 1837L1054 1825Q1054 1752 1025 1693Z" />
<glyph unicode="&#xc4;" glyph-name="Adieresis" horiz-adv-x="1365" d="M963 334H404L288 0H17L566 1456H738H799L1350 0H1079L963 334ZM890 543L683 1140L476 543H890ZM514 1796T549 1762T585 1676Q585 1625 550 1592T457 1558Q399 1558 364 1591T329 1676Q329
1728 364 1762T457 1796Q514 1796 549 1762ZM975 1795T1010 1761T1046 1675Q1046 1624 1011 1590T918 1556Q860 1556 825 1590T790 1675Q790 1727 825 1761T918 1795Q975 1795 1010 1761Z" />
<glyph unicode="&#xc5;" glyph-name="Aring" horiz-adv-x="1365" d="M963 334H404L288 0H17L566 1456H738H799L1350 0H1079L963 334ZM890 543L683 1140L476 543H890ZM749 1939T800 1911T880 1835T909 1731Q909 1674 880 1628T800 1554T687 1527Q625 1527 575 1554T495
1627T466 1731Q466 1788 495 1835T574 1911T687 1939Q749 1939 800 1911ZM736 1621T767 1653T799 1731Q799 1778 768 1811T687 1844Q639 1844 608 1811T576 1731Q576 1686 607 1654T687 1621Q736 1621 767 1653Z" />
<glyph unicode="&#xc6;" glyph-name="AE" horiz-adv-x="1925" d="M1878 202V0H1145H980L966 340H470L288 0H-8L821 1456H978H1168H1816V1254H1176L1193 853H1735V652H1202L1220 202H1878ZM957 559L930 1197L588 559H957Z" />
<glyph unicode="&#xc7;" glyph-name="Ccedilla" horiz-adv-x="1338" d="M793 190T858 222T957 317T1003 476H1261Q1249 343 1191 238T1028 67T776 -16L768 -57Q832 -68 875 -109T918 -230Q918 -298 881 -349T769 -428T588 -456L581 -314Q642 -314 678 -293T715
-226Q715 -183 681 -166T565 -142L594 -14Q442 8 331 97T160 333T100 670V785Q100 994 173 1150T382 1391T699 1476Q870 1476 991 1413T1179 1236T1262 973H1004Q987 1119 918 1192T699 1266Q532 1266 447 1143T361 787V670Q361 442 440 316T689 190Q793 190 858
222Z" />
<glyph unicode="&#xc8;" glyph-name="Egrave" horiz-adv-x="1158" d="M1101 208V0H336H146V1456H405H1095V1247H405V852H1000V648H405V208H1101ZM550 1550L279 1853H560L756 1550H550Z" />
<glyph unicode="&#xc9;" glyph-name="Eacute" horiz-adv-x="1158" d="M1101 208V0H336H146V1456H405H1095V1247H405V852H1000V648H405V208H1101ZM983 1853L706 1550H506L701 1853H983Z" />
<glyph unicode="&#xca;" glyph-name="Ecircumflex" horiz-adv-x="1158" d="M1101 208V0H336H146V1456H405H1095V1247H405V852H1000V648H405V208H1101ZM978 1565H779L628 1720L478 1565H282V1578L555 1854H701L978 1576V1565Z" />
<glyph unicode="&#xcb;" glyph-name="Edieresis" horiz-adv-x="1158" d="M1101 208V0H336H146V1456H405H1095V1247H405V852H1000V648H405V208H1101ZM456 1803T491 1769T527 1683Q527 1632 492 1599T399 1565Q341 1565 306 1598T271 1683Q271 1735 306 1769T399
1803Q456 1803 491 1769ZM917 1802T952 1768T988 1682Q988 1631 953 1597T860 1563Q802 1563 767 1597T732 1682Q732 1734 767 1768T860 1802Q917 1802 952 1768Z" />
<glyph unicode="&#xcc;" glyph-name="Igrave" horiz-adv-x="581" d="M162 0V1456H420V0H162ZM212 1550L-59 1853H222L418 1550H212Z" />
<glyph unicode="&#xcd;" glyph-name="Iacute" horiz-adv-x="581" d="M162 0V1456H420V0H162ZM645 1853L368 1550H168L363 1853H645Z" />
<glyph unicode="&#xce;" glyph-name="Icircumflex" horiz-adv-x="581" d="M162 0V1456H420V0H162ZM640 1565H441L290 1720L140 1565H-56V1578L217 1854H363L640 1576V1565Z" />
<glyph unicode="&#xcf;" glyph-name="Idieresis" horiz-adv-x="581" d="M162 0V1456H420V0H162ZM118 1803T153 1769T189 1683Q189 1632 154 1599T61 1565Q3 1565 -32 1598T-67 1683Q-67 1735 -32 1769T61 1803Q118 1803 153 1769ZM579 1802T614 1768T650 1682Q650
1631 615 1597T522 1563Q464 1563 429 1597T394 1682Q394 1734 429 1768T522 1802Q579 1802 614 1768Z" />
<glyph unicode="&#xd0;" glyph-name="Eth" horiz-adv-x="1337" d="M772 1456T921 1370T1152 1127T1235 763V692Q1235 484 1153 328T919 86T568 0H260H146V650H-10V823H146V1456H405H578Q772 1456 921 1370ZM975 765Q975 999 873 1123T578 1247H405V823H663V650H405V208H568Q768
208 871 334T975 692V765Z" />
<glyph unicode="&#xd1;" glyph-name="Ntilde" horiz-adv-x="1454" d="M1046 0L405 1024V0H146V1456H405L1048 430V1456H1305V0H1046ZM1094 1752T1065 1693T985 1601T870 1567Q824 1567 793 1579T720 1615Q686 1636 660 1646T600 1656Q561 1656 536 1628T510 1554L358
1562Q358 1634 387 1694T467 1788T581 1823Q618 1823 648 1812T721 1778Q761 1756 789 1745T852 1734Q890 1734 916 1762T943 1837L1094 1825Q1094 1752 1065 1693Z" />
<glyph unicode="&#xd2;" glyph-name="Ograve" horiz-adv-x="1414" d="M1313 473T1238 313T1025 66T708 -20Q530 -20 392 66T177 313T100 691V764Q100 981 176 1142T390 1389T706 1476Q886 1476 1023 1390T1237 1143T1313 764V691Q1313 473 1238 313ZM1053 1007T963
1134T706 1262Q599 1262 521 1205T402 1037T360 766V691Q360 532 402 420T522 251T708 193Q874 193 963 321T1053 691V766Q1053 1007 963 1134ZM630 1543L359 1846H640L836 1543H630Z" />
<glyph unicode="&#xd3;" glyph-name="Oacute" horiz-adv-x="1414" d="M1313 473T1238 313T1025 66T708 -20Q530 -20 392 66T177 313T100 691V764Q100 981 176 1142T390 1389T706 1476Q886 1476 1023 1390T1237 1143T1313 764V691Q1313 473 1238 313ZM1053 1007T963
1134T706 1262Q599 1262 521 1205T402 1037T360 766V691Q360 532 402 420T522 251T708 193Q874 193 963 321T1053 691V766Q1053 1007 963 1134ZM1063 1846L786 1543H586L781 1846H1063Z" />
<glyph unicode="&#xd4;" glyph-name="Ocircumflex" horiz-adv-x="1414" d="M1313 473T1238 313T1025 66T708 -20Q530 -20 392 66T177 313T100 691V764Q100 981 176 1142T390 1389T706 1476Q886 1476 1023 1390T1237 1143T1313 764V691Q1313 473 1238 313ZM1053
1007T963 1134T706 1262Q599 1262 521 1205T402 1037T360 766V691Q360 532 402 420T522 251T708 193Q874 193 963 321T1053 691V766Q1053 1007 963 1134ZM1058 1558H859L708 1713L558 1558H362V1571L635 1847H781L1058 1569V1558Z" />
<glyph unicode="&#xd5;" glyph-name="Otilde" horiz-adv-x="1414" d="M1313 473T1238 313T1025 66T708 -20Q530 -20 392 66T177 313T100 691V764Q100 981 176 1142T390 1389T706 1476Q886 1476 1023 1390T1237 1143T1313 764V691Q1313 473 1238 313ZM1053 1007T963
1134T706 1262Q599 1262 521 1205T402 1037T360 766V691Q360 532 402 420T522 251T708 193Q874 193 963 321T1053 691V766Q1053 1007 963 1134ZM1076 1752T1047 1693T967 1601T852 1567Q806 1567 775 1579T702 1615Q668 1636 642 1646T582 1656Q543 1656 518 1628T492
1554L340 1562Q340 1634 369 1694T449 1788T563 1823Q600 1823 630 1812T703 1778Q743 1756 771 1745T834 1734Q872 1734 898 1762T925 1837L1076 1825Q1076 1752 1047 1693Z" />
<glyph unicode="&#xd6;" glyph-name="Odieresis" horiz-adv-x="1414" d="M1313 473T1238 313T1025 66T708 -20Q530 -20 392 66T177 313T100 691V764Q100 981 176 1142T390 1389T706 1476Q886 1476 1023 1390T1237 1143T1313 764V691Q1313 473 1238 313ZM1053 1007T963
1134T706 1262Q599 1262 521 1205T402 1037T360 766V691Q360 532 402 420T522 251T708 193Q874 193 963 321T1053 691V766Q1053 1007 963 1134ZM536 1796T571 1762T607 1676Q607 1625 572 1592T479 1558Q421 1558 386 1591T351 1676Q351 1728 386 1762T479 1796Q536
1796 571 1762ZM997 1795T1032 1761T1068 1675Q1068 1624 1033 1590T940 1556Q882 1556 847 1590T812 1675Q812 1727 847 1761T940 1795Q997 1795 1032 1761Z" />
<glyph unicode="&#xd7;" glyph-name="multiply" horiz-adv-x="1092" d="M691 687L1006 365L855 214L541 534L227 214L76 365L391 687L76 1008L227 1159L541 839L855 1159L1006 1008L691 687Z" />
<glyph unicode="&#xd8;" glyph-name="Oslash" horiz-adv-x="1412" d="M1234 1184T1275 1054T1317 764V691Q1317 473 1242 313T1029 66T712 -20Q549 -20 416 54L326 -95H155L299 143Q206 237 155 376T104 691V764Q104 981 180 1142T394 1389T710 1476Q903 1476
1047 1378L1132 1518H1301L1156 1278Q1234 1184 1275 1054ZM364 488T432 363L927 1180Q842 1262 710 1262Q603 1262 525 1205T406 1037T364 766V691Q364 488 432 363ZM1057 766Q1057 929 1014 1043L532 246Q609 193 712 193Q878 193 967 321T1057 691V766Z" />
<glyph unicode="&#xd9;" glyph-name="Ugrave" horiz-adv-x="1337" d="M1216 485Q1216 323 1145 209T949 38T670 -20Q511 -20 388 37T195 208T125 485V1456H383V485Q383 335 458 262T670 188Q808 188 882 261T957 485V1456H1216V485ZM590 1543L319 1846H600L796 1543H590Z" />
<glyph unicode="&#xda;" glyph-name="Uacute" horiz-adv-x="1337" d="M1216 485Q1216 323 1145 209T949 38T670 -20Q511 -20 388 37T195 208T125 485V1456H383V485Q383 335 458 262T670 188Q808 188 882 261T957 485V1456H1216V485ZM1023 1846L746 1543H546L741
1846H1023Z" />
<glyph unicode="&#xdb;" glyph-name="Ucircumflex" horiz-adv-x="1337" d="M1216 485Q1216 323 1145 209T949 38T670 -20Q511 -20 388 37T195 208T125 485V1456H383V485Q383 335 458 262T670 188Q808 188 882 261T957 485V1456H1216V485ZM1017 1558H818L667 1713L517
1558H321V1571L594 1847H740L1017 1569V1558Z" />
<glyph unicode="&#xdc;" glyph-name="Udieresis" horiz-adv-x="1337" d="M1216 485Q1216 323 1145 209T949 38T670 -20Q511 -20 388 37T195 208T125 485V1456H383V485Q383 335 458 262T670 188Q808 188 882 261T957 485V1456H1216V485ZM495 1796T530 1762T566
1676Q566 1625 531 1592T438 1558Q380 1558 345 1591T310 1676Q310 1728 345 1762T438 1796Q495 1796 530 1762ZM956 1795T991 1761T1027 1675Q1027 1624 992 1590T899 1556Q841 1556 806 1590T771 1675Q771 1727 806 1761T899 1795Q956 1795 991 1761Z" />
<glyph unicode="&#xdd;" glyph-name="Yacute" horiz-adv-x="1251" d="M955 1456H1242L755 535V0H494V535L7 1456H294L624 771L955 1456ZM983 1846L706 1543H506L701 1846H983Z" />
<glyph unicode="&#xde;" glyph-name="Thorn" horiz-adv-x="1229" d="M801 1178T917 1122T1094 967T1155 738Q1155 610 1095 511T918 355T638 298H396V0H147V1456H396V1178H638Q801 1178 917 1122ZM729 498T789 531T877 618T906 736Q906 802 878 856T790 944T638
978H396V498H638Q729 498 789 531Z" />
<glyph unicode="&#xdf;" glyph-name="germandbls" horiz-adv-x="1260" d="M136 0V1105Q136 1252 190 1353T343 1506T577 1558Q694 1558 785 1518T929 1398T981 1200Q981 1148 972 1108T950 1041T915 977Q889 934 877 902T864 825Q864 793 881 764T924 709T996
644Q1056 593 1094 553T1159 459T1186 339Q1186 165 1076 73T767 -20Q688 -20 604 -2T479 43L529 243Q569 219 629 200T754 180Q846 180 891 220T937 331Q937 367 920 398T875 455T802 519Q741 569 705 606T642 697T616 819Q616 877 632 917T680 1011Q710 1060
725 1097T740 1184Q740 1266 693 1312T570 1358Q384 1358 384 1103V0H136Z" />
<glyph unicode="&#xe0;" glyph-name="agrave" horiz-adv-x="1107" d="M980 104T1021 17V0H767Q751 35 739 101Q688 46 617 13T456 -20Q350 -20 266 22T135 138T88 304Q88 477 216 569T581 661H731V731Q731 817 684 865T545 914Q490 914 448 895T383 843T360 769H111Q111
856 166 932T324 1055T559 1102Q683 1102 778 1060T926 934T980 729V252Q980 104 1021 17ZM582 179T642 216T731 305V507H601Q471 507 404 460T337 328Q337 262 381 221T504 179Q582 179 642 216ZM487 1233L216 1536H497L693 1233H487Z" />
<glyph unicode="&#xe1;" glyph-name="aacute" horiz-adv-x="1107" d="M980 104T1021 17V0H767Q751 35 739 101Q688 46 617 13T456 -20Q350 -20 266 22T135 138T88 304Q88 477 216 569T581 661H731V731Q731 817 684 865T545 914Q490 914 448 895T383 843T360 769H111Q111
856 166 932T324 1055T559 1102Q683 1102 778 1060T926 934T980 729V252Q980 104 1021 17ZM582 179T642 216T731 305V507H601Q471 507 404 460T337 328Q337 262 381 221T504 179Q582 179 642 216ZM920 1536L643 1233H443L638 1536H920Z" />
<glyph unicode="&#xe2;" glyph-name="acircumflex" horiz-adv-x="1107" d="M980 104T1021 17V0H767Q751 35 739 101Q688 46 617 13T456 -20Q350 -20 266 22T135 138T88 304Q88 477 216 569T581 661H731V731Q731 817 684 865T545 914Q490 914 448 895T383 843T360
769H111Q111 856 166 932T324 1055T559 1102Q683 1102 778 1060T926 934T980 729V252Q980 104 1021 17ZM582 179T642 216T731 305V507H601Q471 507 404 460T337 328Q337 262 381 221T504 179Q582 179 642 216ZM915 1248H716L565 1403L415 1248H219V1261L492 1537H638L915
1259V1248Z" />
<glyph unicode="&#xe3;" glyph-name="atilde" horiz-adv-x="1107" d="M980 104T1021 17V0H767Q751 35 739 101Q688 46 617 13T456 -20Q350 -20 266 22T135 138T88 304Q88 477 216 569T581 661H731V731Q731 817 684 865T545 914Q490 914 448 895T383 843T360 769H111Q111
856 166 932T324 1055T559 1102Q683 1102 778 1060T926 934T980 729V252Q980 104 1021 17ZM582 179T642 216T731 305V507H601Q471 507 404 460T337 328Q337 262 381 221T504 179Q582 179 642 216ZM933 1442T904 1383T824 1291T709 1257Q663 1257 632 1269T559 1305Q525
1326 499 1336T439 1346Q400 1346 375 1318T349 1244L197 1252Q197 1324 226 1384T306 1478T420 1513Q457 1513 487 1502T560 1468Q600 1446 628 1435T691 1424Q729 1424 755 1452T782 1527L933 1515Q933 1442 904 1383Z" />
<glyph unicode="&#xe4;" glyph-name="adieresis" horiz-adv-x="1107" d="M980 104T1021 17V0H767Q751 35 739 101Q688 46 617 13T456 -20Q350 -20 266 22T135 138T88 304Q88 477 216 569T581 661H731V731Q731 817 684 865T545 914Q490 914 448 895T383 843T360
769H111Q111 856 166 932T324 1055T559 1102Q683 1102 778 1060T926 934T980 729V252Q980 104 1021 17ZM582 179T642 216T731 305V507H601Q471 507 404 460T337 328Q337 262 381 221T504 179Q582 179 642 216ZM393 1486T428 1452T464 1366Q464 1315 429 1282T336
1248Q278 1248 243 1281T208 1366Q208 1418 243 1452T336 1486Q393 1486 428 1452ZM854 1485T889 1451T925 1365Q925 1314 890 1280T797 1246Q739 1246 704 1280T669 1365Q669 1417 704 1451T797 1485Q854 1485 889 1451Z" />
<glyph unicode="&#xe5;" glyph-name="aring" horiz-adv-x="1107" d="M980 104T1021 17V0H767Q751 35 739 101Q688 46 617 13T456 -20Q350 -20 266 22T135 138T88 304Q88 477 216 569T581 661H731V731Q731 817 684 865T545 914Q490 914 448 895T383 843T360 769H111Q111
856 166 932T324 1055T559 1102Q683 1102 778 1060T926 934T980 729V252Q980 104 1021 17ZM582 179T642 216T731 305V507H601Q471 507 404 460T337 328Q337 262 381 221T504 179Q582 179 642 216ZM628 1629T679 1601T759 1525T788 1421Q788 1364 759 1318T679 1244T566
1217Q504 1217 454 1244T374 1317T345 1421Q345 1478 374 1525T453 1601T566 1629Q628 1629 679 1601ZM615 1311T646 1343T678 1421Q678 1468 647 1501T566 1534Q518 1534 487 1501T455 1421Q455 1376 486 1344T566 1311Q615 1311 646 1343Z" />
<glyph unicode="&#xe6;" glyph-name="ae" horiz-adv-x="1729" d="M1670 469H978Q988 337 1060 258T1270 179Q1339 179 1393 192T1484 222T1574 269L1646 100Q1590 55 1489 17T1254 -21Q1127 -21 1028 20T862 139Q802 70 698 25T451 -21Q330 -21 245 20T115 136T71
313Q71 472 192 558T546 644H733V712Q733 801 687 851T554 902Q493 902 447 882T376 827T351 751L103 770Q103 865 159 941T319 1059T555 1102Q664 1102 749 1070T889 973Q951 1036 1035 1069T1219 1102Q1361 1102 1462 1043T1617 873T1670 612V469ZM1424 672Q1424
776 1374 839T1219 902Q1117 902 1057 832T982 643H1424V672ZM320 245T365 207T499 168Q559 168 624 197T733 267V474H548Q476 474 425 452T347 392T320 309Q320 245 365 207Z" />
<glyph unicode="&#xe7;" glyph-name="ccedilla" horiz-adv-x="1072" d="M626 180T673 203T748 267T779 360H1014Q1011 266 961 185T826 51T637 -16L629 -57Q693 -68 736 -109T779 -230Q779 -298 742 -349T630 -428T449 -456L442 -314Q503 -314 539 -293T576 -226Q576
-183 542 -166T426 -142L456 -9Q332 15 247 91T120 278T78 524V558Q78 711 133 834T300 1030T571 1102Q700 1102 799 1051T955 906T1014 693H779Q776 751 750 798T678 874T568 902Q435 902 381 805T327 558V524Q327 180 569 180Q626 180 673 203Z" />
<glyph unicode="&#xe8;" glyph-name="egrave" horiz-adv-x="1100" d="M1038 463H333Q340 380 376 316T473 216T617 180Q785 180 887 312L1020 183Q961 96 856 38T602 -20Q444 -20 326 48T145 236T82 503V544Q82 711 146 837T322 1033T574 1102Q727 1102 831 1035T986
848T1038 568V463ZM792 662Q787 767 735 834T573 902Q475 902 415 834T338 643H792V662ZM476 1233L205 1536H486L682 1233H476Z" />
<glyph unicode="&#xe9;" glyph-name="eacute" horiz-adv-x="1100" d="M1038 463H333Q340 380 376 316T473 216T617 180Q785 180 887 312L1020 183Q961 96 856 38T602 -20Q444 -20 326 48T145 236T82 503V544Q82 711 146 837T322 1033T574 1102Q727 1102 831 1035T986
848T1038 568V463ZM792 662Q787 767 735 834T573 902Q475 902 415 834T338 643H792V662ZM909 1536L632 1233H432L627 1536H909Z" />
<glyph unicode="&#xea;" glyph-name="ecircumflex" horiz-adv-x="1100" d="M1038 463H333Q340 380 376 316T473 216T617 180Q785 180 887 312L1020 183Q961 96 856 38T602 -20Q444 -20 326 48T145 236T82 503V544Q82 711 146 837T322 1033T574 1102Q727 1102 831
1035T986 848T1038 568V463ZM792 662Q787 767 735 834T573 902Q475 902 415 834T338 643H792V662ZM904 1248H705L554 1403L404 1248H208V1261L481 1537H627L904 1259V1248Z" />
<glyph unicode="&#xeb;" glyph-name="edieresis" horiz-adv-x="1100" d="M1038 463H333Q340 380 376 316T473 216T617 180Q785 180 887 312L1020 183Q961 96 856 38T602 -20Q444 -20 326 48T145 236T82 503V544Q82 711 146 837T322 1033T574 1102Q727 1102 831
1035T986 848T1038 568V463ZM792 662Q787 767 735 834T573 902Q475 902 415 834T338 643H792V662ZM382 1486T417 1452T453 1366Q453 1315 418 1282T325 1248Q267 1248 232 1281T197 1366Q197 1418 232 1452T325 1486Q382 1486 417 1452ZM843 1485T878 1451T914
1365Q914 1314 879 1280T786 1246Q728 1246 693 1280T658 1365Q658 1417 693 1451T786 1485Q843 1485 878 1451Z" />
<glyph unicode="&#xec;" glyph-name="igrave" horiz-adv-x="542" d="M143 0V1082H392V0H143ZM192 1225L-79 1528H202L398 1225H192Z" />
<glyph unicode="&#xed;" glyph-name="iacute" horiz-adv-x="542" d="M143 0V1082H392V0H143ZM625 1528L348 1225H148L343 1528H625Z" />
<glyph unicode="&#xee;" glyph-name="icircumflex" horiz-adv-x="542" d="M143 0V1082H392V0H143ZM620 1240H421L270 1395L120 1240H-76V1253L197 1529H343L620 1251V1240Z" />
<glyph unicode="&#xef;" glyph-name="idieresis" horiz-adv-x="542" d="M143 0V1082H392V0H143ZM98 1478T133 1444T169 1358Q169 1307 134 1274T41 1240Q-17 1240 -52 1273T-87 1358Q-87 1410 -52 1444T41 1478Q98 1478 133 1444ZM559 1477T594 1443T630 1357Q630
1306 595 1272T502 1238Q444 1238 409 1272T374 1357Q374 1409 409 1443T502 1477Q559 1477 594 1443Z" />
<glyph unicode="&#xf0;" glyph-name="eth" horiz-adv-x="1190" d="M959 1178T1025 1010T1091 643V558Q1091 389 1027 258T849 53T593 -20Q450 -20 338 44T164 221T101 468Q101 618 157 732T315 909T552 972Q625 972 690 949T809 884Q759 1050 636 1172L433 1038L355
1147L525 1260Q402 1339 239 1381L317 1580Q553 1532 732 1396L911 1514L988 1405L837 1304Q959 1178 1025 1010ZM842 645Q842 668 841 679Q811 723 752 751T610 780Q485 780 418 697T350 468Q350 392 379 326T465 220T597 180Q673 180 728 227T813 356T842 542V645Z"
/>
<glyph unicode="&#xf1;" glyph-name="ntilde" horiz-adv-x="1140" d="M841 1102T930 1007T1020 698V0H771V700Q771 808 725 853T582 899Q512 899 457 865T369 770V0H120V1082H354L362 957Q420 1027 500 1064T676 1102Q841 1102 930 1007ZM942 1442T913 1383T833
1291T718 1257Q672 1257 641 1269T568 1305Q534 1326 508 1336T448 1346Q409 1346 384 1318T358 1244L206 1252Q206 1324 235 1384T315 1478T429 1513Q466 1513 496 1502T569 1468Q609 1446 637 1435T700 1424Q738 1424 764 1452T791 1527L942 1515Q942 1442 913
1383Z" />
<glyph unicode="&#xf2;" glyph-name="ograve" horiz-adv-x="1165" d="M78 709T138 834T313 1030T581 1102Q737 1102 851 1031T1026 834T1087 551V530Q1087 372 1027 247T852 51T583 -20Q428 -20 314 51T139 247T78 530V551Q78 709 138 834ZM327 376T391 278T583
180Q668 180 725 226T810 352T838 530V551Q838 649 811 728T725 855T581 902Q496 902 439 855T355 729T327 551V530Q327 376 391 278ZM498 1233L227 1536H508L704 1233H498Z" />
<glyph unicode="&#xf3;" glyph-name="oacute" horiz-adv-x="1165" d="M78 709T138 834T313 1030T581 1102Q737 1102 851 1031T1026 834T1087 551V530Q1087 372 1027 247T852 51T583 -20Q428 -20 314 51T139 247T78 530V551Q78 709 138 834ZM327 376T391 278T583
180Q668 180 725 226T810 352T838 530V551Q838 649 811 728T725 855T581 902Q496 902 439 855T355 729T327 551V530Q327 376 391 278ZM931 1536L654 1233H454L649 1536H931Z" />
<glyph unicode="&#xf4;" glyph-name="ocircumflex" horiz-adv-x="1165" d="M78 709T138 834T313 1030T581 1102Q737 1102 851 1031T1026 834T1087 551V530Q1087 372 1027 247T852 51T583 -20Q428 -20 314 51T139 247T78 530V551Q78 709 138 834ZM327 376T391 278T583
180Q668 180 725 226T810 352T838 530V551Q838 649 811 728T725 855T581 902Q496 902 439 855T355 729T327 551V530Q327 376 391 278ZM926 1248H727L576 1403L426 1248H230V1261L503 1537H649L926 1259V1248Z" />
<glyph unicode="&#xf5;" glyph-name="otilde" horiz-adv-x="1165" d="M78 709T138 834T313 1030T581 1102Q737 1102 851 1031T1026 834T1087 551V530Q1087 372 1027 247T852 51T583 -20Q428 -20 314 51T139 247T78 530V551Q78 709 138 834ZM327 376T391 278T583
180Q668 180 725 226T810 352T838 530V551Q838 649 811 728T725 855T581 902Q496 902 439 855T355 729T327 551V530Q327 376 391 278ZM944 1442T915 1383T835 1291T720 1257Q674 1257 643 1269T570 1305Q536 1326 510 1336T450 1346Q411 1346 386 1318T360 1244L208
1252Q208 1324 237 1384T317 1478T431 1513Q468 1513 498 1502T571 1468Q611 1446 639 1435T702 1424Q740 1424 766 1452T793 1527L944 1515Q944 1442 915 1383Z" />
<glyph unicode="&#xf6;" glyph-name="odieresis" horiz-adv-x="1165" d="M78 709T138 834T313 1030T581 1102Q737 1102 851 1031T1026 834T1087 551V530Q1087 372 1027 247T852 51T583 -20Q428 -20 314 51T139 247T78 530V551Q78 709 138 834ZM327 376T391 278T583
180Q668 180 725 226T810 352T838 530V551Q838 649 811 728T725 855T581 902Q496 902 439 855T355 729T327 551V530Q327 376 391 278ZM404 1486T439 1452T475 1366Q475 1315 440 1282T347 1248Q289 1248 254 1281T219 1366Q219 1418 254 1452T347 1486Q404 1486
439 1452ZM865 1485T900 1451T936 1365Q936 1314 901 1280T808 1246Q750 1246 715 1280T680 1365Q680 1417 715 1451T808 1485Q865 1485 900 1451Z" />
<glyph unicode="&#xf7;" glyph-name="divide" horiz-adv-x="1169" d="M644 1230T683 1192T722 1094Q722 1036 683 998T577 960Q510 960 472 997T433 1094Q433 1154 471 1192T577 1230Q644 1230 683 1192ZM67 581V796H1081V581H67ZM644 415T683 377T722 279Q722
220 683 183T577 145Q510 145 472 182T433 279Q433 339 471 377T577 415Q644 415 683 377Z" />
<glyph unicode="&#xf8;" glyph-name="oslash" horiz-adv-x="1160" d="M985 932T1036 814T1087 551V530Q1087 372 1027 247T852 51T583 -20Q485 -20 401 9L329 -138H182L284 70Q185 142 132 262T78 530V551Q78 709 138 834T313 1030T581 1102Q686 1102 774 1068L845
1212H992L890 1004Q985 932 1036 814ZM327 374T388 282L682 881Q639 902 581 902Q496 902 439 855T355 729T327 551V530Q327 374 388 282ZM838 551Q838 619 824 680T783 787L493 196Q535 180 583 180Q668 180 725 226T810 352T838 530V551Z" />
<glyph unicode="&#xf9;" glyph-name="ugrave" horiz-adv-x="1139" d="M1019 1082V0H784L778 107Q672 -20 475 -20Q307 -20 212 78T117 383V1082H366V381Q366 275 412 230T535 184Q708 184 769 307V1082H1019ZM492 1233L221 1536H502L698 1233H492Z" />
<glyph unicode="&#xfa;" glyph-name="uacute" horiz-adv-x="1139" d="M1019 1082V0H784L778 107Q672 -20 475 -20Q307 -20 212 78T117 383V1082H366V381Q366 275 412 230T535 184Q708 184 769 307V1082H1019ZM925 1536L648 1233H448L643 1536H925Z" />
<glyph unicode="&#xfb;" glyph-name="ucircumflex" horiz-adv-x="1139" d="M1019 1082V0H784L778 107Q672 -20 475 -20Q307 -20 212 78T117 383V1082H366V381Q366 275 412 230T535 184Q708 184 769 307V1082H1019ZM919 1248H720L569 1403L419 1248H223V1261L496
1537H642L919 1259V1248Z" />
<glyph unicode="&#xfc;" glyph-name="udieresis" horiz-adv-x="1139" d="M1019 1082V0H784L778 107Q672 -20 475 -20Q307 -20 212 78T117 383V1082H366V381Q366 275 412 230T535 184Q708 184 769 307V1082H1019ZM397 1486T432 1452T468 1366Q468 1315 433 1282T340
1248Q282 1248 247 1281T212 1366Q212 1418 247 1452T340 1486Q397 1486 432 1452ZM858 1485T893 1451T929 1365Q929 1314 894 1280T801 1246Q743 1246 708 1280T673 1365Q673 1417 708 1451T801 1485Q858 1485 893 1451Z" />
<glyph unicode="&#xfd;" glyph-name="yacute" horiz-adv-x="1001" d="M988 1082L557 -164Q516 -276 440 -356T221 -437Q172 -437 102 -419V-228L148 -230Q237 -230 283 -199T357 -88L391 4L11 1082H280L505 356L723 1082H988ZM870 1536L593 1233H393L588 1536H870Z" />
<glyph unicode="&#xfe;" glyph-name="thorn" horiz-adv-x="1173" d="M792 1102T887 1034T1031 842T1080 552V531Q1080 372 1031 247T887 51T660 -20Q485 -20 378 96V-416H129V1536H378V985Q484 1102 657 1102Q792 1102 887 1034ZM831 552Q831 706 771 802T588
899Q441 899 378 778V303Q443 180 590 180Q712 180 771 278T831 531V552Z" />
<glyph unicode="&#xff;" glyph-name="ydieresis" horiz-adv-x="1001" d="M988 1082L557 -164Q516 -276 440 -356T221 -437Q172 -437 102 -419V-228L148 -230Q237 -230 283 -199T357 -88L391 4L11 1082H280L505 356L723 1082H988ZM342 1486T377 1452T413 1366Q413
1315 378 1282T285 1248Q227 1248 192 1281T157 1366Q157 1418 192 1452T285 1486Q342 1486 377 1452ZM803 1485T838 1451T874 1365Q874 1314 839 1280T746 1246Q688 1246 653 1280T618 1365Q618 1417 653 1451T746 1485Q803 1485 838 1451Z" />
<glyph unicode="&#x2013;" glyph-name="endash" horiz-adv-x="1318" d="M157 618V820H1178V618H157Z" />
<glyph unicode="&#x2014;" glyph-name="emdash" horiz-adv-x="1581" d="M126 618V820H1487V618H126Z" />
<glyph unicode="&#x2018;" glyph-name="quoteleft" horiz-adv-x="452" d="M100 1289T151 1393T283 1564L408 1486Q363 1419 340 1349T316 1195V1056H100V1194Q100 1289 151 1393Z" />
<glyph unicode="&#x2019;" glyph-name="quoteright" horiz-adv-x="448" d="M360 1297T309 1193T178 1022L53 1100Q98 1168 121 1238T145 1391V1536H360V1392Q360 1297 309 1193Z" />
<glyph unicode="&#x201a;" glyph-name="quotesinglbase" horiz-adv-x="468" d="M360 -24T309 -128T178 -299L52 -222Q96 -157 118 -86T140 70V206H360V71Q360 -24 309 -128Z" />
<glyph unicode="&#x201c;" glyph-name="quotedblleft" horiz-adv-x="794" d="M109 1289T160 1393T292 1564L417 1486Q372 1419 349 1349T325 1195V1056H109V1194Q109 1289 160 1393ZM446 1289T497 1393T629 1564L754 1486Q709 1419 686 1349T662 1195V1056H446V1194Q446
1289 497 1393Z" />
<glyph unicode="&#x201d;" glyph-name="quotedblright" horiz-adv-x="801" d="M373 1297T322 1193T191 1022L66 1100Q111 1168 134 1238T158 1391V1536H373V1392Q373 1297 322 1193ZM709 1297T658 1193T527 1022L402 1100Q447 1168 470 1238T494 1391V1536H709V1392Q709
1297 658 1193Z" />
<glyph unicode="&#x201e;" glyph-name="quotedblbase" horiz-adv-x="783" d="M360 -30T311 -139T182 -319L52 -242Q96 -172 118 -97T140 70V256H360V71Q360 -30 311 -139ZM688 -30T637 -139T506 -319L377 -242Q421 -169 444 -95T468 70V256H689L688 71Q688 -30 637 -139Z" />
<glyph unicode="&#x2022;" glyph-name="bullet" horiz-adv-x="719" d="M136 834T163 883T241 960T359 988Q428 988 479 961T557 884T585 771V731Q585 668 558 620T480 544T361 516Q293 516 242 543T164 619T136 731V771Q136 834 163 883Z" />
<glyph unicode="&#x2039;" glyph-name="guilsinglleft" horiz-adv-x="628" d="M319 537L565 137H395L108 527V540V546L395 936H565L319 537Z" />
<glyph unicode="&#x203a;" glyph-name="guilsinglright" horiz-adv-x="618" d="M541 546V533V527L254 137H84L330 536L84 936H254L541 546Z" />
</font>
</defs>
</svg>
