<?xml version="1.0" standalone="no"?>
<!DOCTYPE svg PUBLIC "-//W3C//DTD SVG 1.1//EN" "http://www.w3.org/Graphics/SVG/1.1/DTD/svg11.dtd" >
<svg xmlns="http://www.w3.org/2000/svg">
<metadata>
This is a custom SVG webfont generated by Font Squirrel.
Copyright   : Copyright c 2010 Yanone httpyanonedetypedesign All rights reservedThis Font Software is licensed under the SIL Open Font License Version 11This license is available with a FAQ at httpscriptssilorgOFL
Designer    : Yanone
Foundry     : Yanone
Foundry URL : httpyanonedetypedesign
</metadata>
<defs>
<font id="webfont6ZqOUGp9" horiz-adv-x="882" >
<font-face units-per-em="2048" ascent="1638" descent="-410" />
<missing-glyph horiz-adv-x="350" />
<glyph unicode="&#xfb01;" horiz-adv-x="811" d="M23 926q0 63 4 84q2 14 28 14h123v129q0 92 23 164q20 66 55 106q29 35 82 58q45 20 90 26q39 6 96 6q209 0 209 -73q0 -33 -14 -68q-80 39 -193 39q-52 0 -86 -6q-31 -6 -71 -33q-39 -27 -58 -80q-20 -61 -20 -141v-127h172q0 -63 -4 -84q-2 -14 -25 -14h-143v-899 q0 -27 -29 -27h-84v926h-155zM584 0v969q0 39 20 47q18 8 94 8v-997q0 -20 -14 -23q-20 -4 -100 -4z" />
<glyph unicode="&#xfb02;" horiz-adv-x="831" d="M20 926q0 63 5 84q2 14 28 14h123v129q0 117 31 194.5t82 110.5q53 35 94 43q47 10 98 10q133 0 236 -57v-1427q0 -27 -29 -27h-84v1397q-55 18 -117 18q-41 0 -65.5 -6t-59.5 -27q-37 -20 -55 -77q-18 -55 -18 -140v-141h205q0 -63 -5 -84q-2 -14 -24 -14h-176v-899 q0 -27 -27 -27h-86v926h-156z" />
<glyph horiz-adv-x="518" />
<glyph horiz-adv-x="518" />
<glyph unicode=" "  horiz-adv-x="350" />
<glyph unicode="&#x09;" horiz-adv-x="350" />
<glyph unicode="&#xa0;" horiz-adv-x="350" />
<glyph unicode="!" horiz-adv-x="385" d="M104 82q0 41 23 65q25 27 66 27q46 0 67 -24q23 -27 23 -68t-25 -66q-27 -27 -65 -26q-89 0 -89 92zM125 1415q0 20 29 27q28 6 116 6l-18 -1006q-3 -34 -25 -43q-18 -8 -88 -8z" />
<glyph unicode="&#x22;" horiz-adv-x="495" d="M72 1544q0 57 6 60q27 12 110 2q2 -72 -10 -240q-12 -158 -22 -168q-63 -2 -64 -2q-3 22 -12 147q-8 113 -8 201zM307 1544q0 57 6 60q27 12 111 2q2 -72 -10 -240q-12 -158 -23 -168l-63 -2q-3 22 -13 147q-8 113 -8 201z" />
<glyph unicode="#" d="M78 408q0 83 12 92q4 2 14 2h109l14 254h-149q0 83 12 92q4 2 14 2h127l9 147q4 20 20 23q25 4 82 4l-10 -174h231l8 147q4 20 21 23q25 4 84 4l-10 -174h143q0 -57 -4 -78q-4 -16 -25 -16h-118l-15 -254h162q0 -57 -4 -78q-4 -16 -25 -16h-137l-8 -162q-4 -20 -21 -23 q-25 -4 -84 -4l11 189h-232l-8 -162q-4 -20 -20 -23q-25 -4 -82 -4l10 189h-131zM313 502h232l14 254h-231z" />
<glyph unicode="$" d="M135 72q0 12 12 43q14 35 25 45q76 -63 227 -64q233 0 234 221q0 66 -31 121q-29 51 -106 129l-230 215q-127 123 -127 236q0 100 72 166q70 63 201 76v198q0 31 22 41q25 10 80 10v-247q70 -2 125 -19q53 -14 73.5 -26.5t20.5 -20.5q0 -51 -33 -82q-72 47 -213 47 q-227 0 -227 -145q0 -80 107 -180l251 -234q133 -127 134 -287q0 -287 -271 -323v-193q0 -29 -22 -39q-25 -10 -78 -10v236q-82 4 -139.5 18t-83.5 35q-23 17 -23 33z" />
<glyph unicode="%" horiz-adv-x="1456" d="M125 1073q0 377 289 377q143 0 207 -82q66 -84 65 -293q0 -379 -283 -379q-76 0 -118 15q-49 16 -86 53t-56 115q-18 75 -18 194zM233 1065q0 -164 39 -221.5t129 -57.5q178 0 179 289q0 166 -39 223q-41 59 -127 60q-181 0 -181 -293zM256 29l862 1421q66 -18 66 -51 q0 -10 -858 -1415q-70 14 -70 45zM772 360q0 377 289 377q143 0 207 -82q66 -84 65 -293q0 -379 -282 -378q-76 0 -119 14q-49 16 -86 53q-39 39 -58 115q-16 67 -16 194zM879 350q0 -162 41 -221q39 -57 129 -57q178 0 178 288q0 166 -39 224q-41 59 -127 59 q-182 0 -182 -293z" />
<glyph unicode="&#x26;" horiz-adv-x="1048" d="M74 352q0 120 67 221q66 98 168 158q-168 279 -168 432q0 145 92 213q94 70 250 70q119 0 209 -29q86 -28 86 -61q0 -47 -26 -80q-100 70 -258 70q-109 0 -172 -41q-61 -39 -62 -156q0 -121 148 -361q139 -227 340 -462q35 115 34 249q0 154 -49 269q-49 117 -123 174 q80 12 215 12q106 0 181 -4q4 -16 4 -45q0 -27 -17 -39q-12 -10 -67 -10l-148 2q113 -131 113 -375q0 -190 -60 -328q113 -127 173 -159q-2 -25 -27 -60q-23 -31 -45 -30q-33 0 -162 143q-115 -145 -321 -145q-375 -1 -375 372zM190 346q0 -109 57.5 -184.5t194.5 -75.5 q162 0 250 125q-172 195 -330 436q-172 -98 -172 -301z" />
<glyph unicode="'" horiz-adv-x="260" d="M72 1544q0 57 6 60q27 12 110 2q2 -72 -10 -240q-12 -158 -22 -168q-63 -2 -64 -2q-3 22 -12 147q-8 113 -8 201z" />
<glyph unicode="(" horiz-adv-x="600" d="M141 659q0 180 35 359q35 176 82 282q45 102 102 193q53 84 89 119q37 37 45 37q43 0 61 -74q-295 -350 -299 -911q0 -344 98 -607q100 -266 201 -381q-18 -82 -63 -82q-14 0 -50 41q-31 37 -88 134q-55 96 -100 211q-47 121 -80 299q-33 175 -33 380z" />
<glyph unicode=")" horiz-adv-x="600" d="M47 -324q45 57 90 136q51 90 96 200q53 133 82 295q31 172 31 357q-3 316 -92 546q-90 231 -207 365q18 74 62 74q12 0 45 -35q37 -39 86 -119q57 -90 102 -192q51 -117 84 -281q33 -166 33 -363q0 -201 -33 -372q-35 -180 -80 -299q-47 -123 -98 -213q-57 -102 -88 -137 q-37 -43 -49 -44q-46 0 -64 82z" />
<glyph unicode="*" horiz-adv-x="964" d="M43 1051q-4 49 26.5 79.5t55.5 18.5l287 -158q2 -25 -8.5 -39t-28.5 -4zM154 602l243 272q27 27 58 -12l-199 -319q-25 -25 -55 -2q-33 22 -47 61zM424 1372q-2 14 8 20.5t33 8.5q45 4 78 -17l-31 -337q-3 -34 -55 -25zM508 870.5q8 12.5 35 20.5l229 -295 q18 -25 -12 -51q-29 -27 -74 -33l-178 332q-8 14 0 26.5zM563 940q-33 45 4 66l320 151q33 -23 39 -67q6 -41 -23 -52z" />
<glyph unicode="+" d="M86 526v49q0 20 2 31q4 16 8 19q8 4 17 4h280v278q0 22 19 25q25 4 84 4v-307h307q0 -53 -4 -82q-2 -20 -25 -21h-278v-280q0 -20 -19 -23q-25 -4 -84 -4v307h-307z" />
<glyph unicode="," horiz-adv-x="366" d="M92 -184q55 92 62 190q-41 25 -41 82q0 35 22 62q20 23 58 22q84 0 83 -96q0 -86 -53 -193q-51 -104 -84 -104q-37 0 -47 37z" />
<glyph unicode="-" horiz-adv-x="591" d="M88 526v49q0 20 2 31q4 16 8 19q8 4 17 4h391q0 -53 -4 -82q-2 -20 -25 -21h-389z" />
<glyph unicode="." horiz-adv-x="366" d="M100 82q0 41 23 65q25 27 63 27q90 0 90 -92q0 -37 -24 -66q-25 -27 -66 -26q-86 0 -86 92z" />
<glyph unicode="/" horiz-adv-x="626" d="M20 -41l463 1573q10 25 27 31q12 4 98 4l-461 -1577q-10 -23 -28 -27q-25 -4 -99 -4z" />
<glyph unicode="0" d="M74 606q0 309 90 467q88 156 289 156q195 0 276.5 -143.5t81.5 -452.5q0 -330 -86 -489.5t-287 -159.5q-199 0 -280 149q-84 151 -84 473zM195 592q0 -272 57 -387q59 -119 186 -119q139 0 197 133q59 137 59 420q0 252 -53 371q-51 117 -182 116q-141 0 -202.5 -135 t-61.5 -399z" />
<glyph unicode="1" d="M74 84q0 23 323 22l29 1006q-39 -2 -266 -49q-16 23 -17 82q0 12 166 49t201 37q16 0 33 -8l-25 -1117h180l113 7q0 -113 -18 -113h-717q-2 12 -2 84z" />
<glyph unicode="2" d="M74 43q0 4 1 11t1 9q0 10 6 23l8 16l16 25q8 12 17 29q61 100 158 211l174 196q74 80 133 187q57 102 57 202q0 80 -41 125q-39 43 -145 43q-206 0 -326 -80q-14 35 -14 86q0 16 43 41t129 43.5t184 18.5q170 0 232 -64q63 -68 63 -204q0 -111 -59 -226 q-57 -111 -136 -198l-182 -209q-111 -127 -170 -222h379l209 9q0 -115 -20 -115h-709q-8 14 -8 43z" />
<glyph unicode="3" d="M100 -115q0 45 15 88q82 -70 217 -69q152 0 244 116.5t92 292.5q0 57 -19 101q-16 41 -51 67q-33 27 -76 41q-39 14 -90 21q-10 2 -100 6l-2 76q287 160 286 342q0 154 -182 153q-199 0 -317 -82q-12 27 -13 84q0 23 39 47.5t125 42.5q74 16 189 17q285 0 284 -238 q0 -199 -245 -370q131 -12 211 -84q82 -74 81 -224q0 -233 -126 -376q-125 -141 -334 -142q-106 0 -168 29q-60 28 -60 61z" />
<glyph unicode="4" d="M78 403q0 102 155 394q160 297 299 422q20 18 54 18q27 0 61 -14l-6 -801l176 4l4 -43q0 -68 -37 -68h-143v-274q0 -29 -14 -37q-8 -4 -99 -4v315h-419q-31 31 -31 88zM180 422h348l19 661q-104 -115 -217 -307q-109 -186 -150 -354z" />
<glyph unicode="5" d="M80 -123q0 53 14 94q76 -70 221 -69q186 0 272.5 133t86.5 348q0 311 -361 311q-39 0 -77 -6q-10 -2 -32 -4t-30 -4l-49 -12q-25 -6 -27 -6l58 567h626q0 -66 -10 -86q-8 -16 -53 -17l-465 4l-39 -354q55 14 143 15q70 2 140 -11q55 -10 137 -53q72 -37 115 -123t43 -207 q0 -602 -474 -602q-78 0 -133 14.5t-82 34.5q-24 19 -24 33z" />
<glyph unicode="6" d="M78 608q0 224 37 387q37 160 102 258q63 94 150 140q84 43 182 43q223 0 223 -62q0 -39 -10 -80q-92 35 -213 35q-152 0 -252 -155q-98 -154 -111 -463q100 186 320 186q141 0 225 -98q84 -100 84 -299q0 -518 -389 -518q-86 0 -151.5 30.5t-102.5 79.5t-59 135 q-20 78 -27 170q-8 115 -8 211zM186 588q-3 -249 50 -375q53 -127 194 -127q131 0 203 106.5t72 280.5q0 317 -230 318q-181 0 -289 -203z" />
<glyph unicode="7" d="M106 1229h738q-436 -717 -557 -1403q-115 0 -115 29q71 372 215 718q147 354 289 555q-111 -4 -535 -4q-35 1 -35 105z" />
<glyph unicode="8" d="M82 371q0 132 74 239q72 106 184 162q-86 49 -131 90q-113 82 -113 238q0 170 100.5 258t252.5 88q356 0 356 -330q0 -207 -246 -354q76 -49 127 -92q133 -123 133 -299q0 -178 -92 -282.5t-264 -104.5q-190 0 -287 106q-94 103 -94 281zM188 377q0 -129 70 -207 q70 -80 199 -80q119 0 186 78q68 77 68 203q0 141 -121 245q-49 43 -141 97q-113 -41 -187 -133t-74 -203zM207 1106q0 -123 112 -201q25 -18 140 -86q240 117 239 293q0 127 -71 176q-74 51 -168 51q-109 0 -180.5 -59t-71.5 -174z" />
<glyph unicode="9" d="M74 729q0 520 389 520q209 0 276 -139q70 -141 72 -485q-2 -424 -129 -631q-125 -205 -387 -205q-172 0 -172 49q0 51 8 76q68 -18 154 -18q385 0 415 616q-100 -186 -311 -186q-139 0 -227 102t-88 301zM184 748q0 -156 61.5 -236t174.5 -80q170 0 285 203v4 q0 131 -9 205q-10 86 -32 155q-25 76 -72 111t-127 35q-281 0 -281 -397z" />
<glyph unicode=":" horiz-adv-x="366" d="M100 82q0 41 23 65q25 27 63 27q90 0 90 -92q0 -37 -24 -66q-25 -27 -66 -26q-86 0 -86 92zM100 791q0 41 23 65q25 27 63 27q90 0 90 -92q0 -37 -24 -66q-25 -27 -66 -27q-86 1 -86 93z" />
<glyph unicode=";" horiz-adv-x="366" d="M86 -184q58 95 61 190q-41 25 -41 82q0 35 23 62q20 23 59 22q84 0 84 -96q0 -88 -55 -192.5t-84 -104.5q-39 0 -47 37zM102 791q0 37 25 65q25 27 61 27q90 0 91 -92q0 -37 -25 -66q-25 -27 -66 -27q-86 1 -86 93z" />
<glyph unicode="&#x3c;" horiz-adv-x="817" d="M90 532q0 43 39 64l549 268q39 -37 39 -76q0 -27 -21 -34l-458 -226l487 -213q-4 -41 -18.5 -65.5t-34.5 -24.5q-10 0 -47 15l-514 225q-21 26 -21 67z" />
<glyph unicode="=" d="M86 348v49q0 18 2 29q4 18 8 20q8 4 17 5h690q0 -59 -4 -84q-3 -18 -25 -19h-688zM86 705v49q0 20 2 30q4 16 8 19q8 4 17 4h690q0 -59 -4 -84q-3 -18 -25 -18h-688z" />
<glyph unicode="&#x3e;" horiz-adv-x="817" d="M98 762q0 35 17 63q14 27 35 27q12 0 49 -14l514 -226q18 -31 18 -67q0 -45 -39 -64l-549 -270q-39 39 -39 76q0 29 21 37l459 225z" />
<glyph unicode="?" horiz-adv-x="602" d="M51 1370q0 31 76 57q74 27 166 27q127 0 207 -67.5t80 -223.5q0 -80 -29 -159q-27 -72 -64 -127q-12 -18 -42.5 -58.5l-38.5 -50.5q-47 -63 -66 -96q-39 -59 -39 -140q0 -37 4 -57q6 -37 8 -39q4 -10 0 -20q-18 -23 -102 -13q-23 55 -23 125q0 96 48 179q20 37 90 131 q66 88 98 155q35 74 35 152q0 197 -197 196q-120 0 -196 -61q-15 31 -15 90zM178 82q0 41 23 65q25 27 63 27q90 0 90 -92q0 -37 -24 -66q-25 -27 -66 -26q-86 0 -86 92z" />
<glyph unicode="@" horiz-adv-x="1542" d="M109 541q0 451 190 655q190 207 528 207q311 0 463 -160q150 -158 150 -518q0 -199 -27 -334q-29 -145 -63 -213q-37 -72 -86 -115q-43 -39 -84 -49q-37 -10 -68 -10q-78 0 -129 51q-78 -53 -227 -53q-123 -2 -195 61q-66 61 -63 248q2 180 86 254q83 74 221 74 q80 0 125 -16q0 23 1 66.5t3 62.5q2 90 -39 124.5t-125 34.5q-133 0 -219 -49q-12 25 -12 64q0 23 18 35q78 49 250 49q120 0 178 -56q57 -53 53 -186l-12 -440l-4 -94.5t-4 -73t-2 -31.5q40 -25 86 -25q25 0 49 13q20 10 57 53q31 37 58 102q25 61 43 174q18 114 18 259 q0 326 -113 458q-115 137 -389 137q-297 0 -450.5 -178t-153.5 -594q0 -215 27 -356q29 -152 74 -235q47 -88 120 -136q80 -51 154 -65q72 -14 188 -15q260 0 480 107q31 -52 30 -86q0 -25 -57 -51q-61 -29 -180 -53.5t-262 -24.5q-94 0 -158 6q-61 6 -143 29 q-77 22 -129 61q-53 41 -104.5 106.5t-82.5 166.5q-35 111 -51 237q-18 142 -18 322zM604 307q-4 -133 37 -174q43 -43 127 -43q55 0 100 25q43 23 47 65l13 367q-51 10 -101 10q-106 0 -163 -55q-56 -54 -60 -195z" />
<glyph unicode="A" horiz-adv-x="890" d="M14 2l387 1421q4 18 39 19q31 0 49 -6l388 -1409q4 -16 -6.5 -22.5t-41.5 -6.5q-49 0 -67 2l-103 395h-426l-94 -372q-3 -25 -55 -25q-33 0 -70 4zM260 500h371l-99 379q-78 305 -86 401q-16 -137 -88 -401z" />
<glyph unicode="B" horiz-adv-x="800" d="M113 0v1399q0 35 51 35h205q342 0 342 -312q0 -162 -62 -241q-59 -78 -139 -90q43 -4 76 -15q35 -12 78 -45q45 -35 67 -92q25 -61 25 -150q0 -121 -27 -206q-28 -89 -67 -142q-41 -53 -95 -86q-47 -29 -104 -43q-49 -12 -101 -12h-249zM225 102h137q117 0 191 88 q74 89 74 289q0 86 -19 139q-18 49 -59 76q-40 25 -80 31q-39 6 -107 6h-137v-629zM225 829h154q211 0 211 273q0 231 -219 231h-146v-504z" />
<glyph unicode="C" horiz-adv-x="720" d="M80 649q0 205 24 359q25 156 62 237q37 84 92 133q53 47 107 64q45 14 112 14q94 0 141 -33q49 -35 50 -69q0 -37 -21 -70q-70 63 -153 64q-49 0 -86 -13q-39 -12 -80 -57q-43 -47 -70 -116.5t-45 -205.5q-16 -117 -16 -309q0 -156 20 -282q18 -113 55 -168.5t76 -76 t92 -20.5q70 0 125 27q59 29 88 63q20 -35 21 -71q0 -49 -76 -96q-72 -45 -178 -46q-55 0 -101 11q-41 10 -90 49q-51 41 -79 108q-27 61 -50 197q-20 123 -20 307z" />
<glyph unicode="D" horiz-adv-x="845" d="M115 0v1399q0 35 51 35h205q203 0 301 -148q96 -143 96 -493q0 -244 -29 -394q-33 -166 -88 -245q-61 -86 -125 -119q-70 -35 -164 -35h-247zM227 109h138q41 0 84 14q35 12 75 55q39 41 64 117q27 78 41 203q16 137 16 303q0 287 -65.5 407.5t-210.5 120.5h-142v-1220z " />
<glyph unicode="E" horiz-adv-x="688" d="M117 0v1405q0 29 26 29h490q0 -98 -10 -103q-2 -2 -11 -2h-385v-493h361q0 -76 -2 -88q-2 -16 -23 -17h-336v-627h404q0 -80 -2 -90q-2 -14 -23 -14h-489z" />
<glyph unicode="F" horiz-adv-x="667" d="M117 0v1405q0 29 26 29h490q0 -92 -10 -99q-2 -2 -11 -2h-385v-495h361q0 -78 -2 -90q-2 -16 -23 -17h-336v-704q2 -27 -24 -27h-86z" />
<glyph unicode="G" horiz-adv-x="815" d="M74 694q0 229 30 383q33 162 89 234q63 82 135 112q74 31 178 31q90 0 153 -29q61 -29 62 -65q0 -31 -16 -70q-71 55 -179 56q-113 0 -182.5 -51.5t-110 -199t-40.5 -395.5q0 -184 20 -323q18 -131 57 -187q41 -59 82 -79.5t109 -20.5q65 0 110 25q45 23 58 53v551h-201 v69q0 27 31 27h276v-721q-109 -115 -278 -114q-74 0 -133 16q-57 16 -107 61q-45 43 -78 127q-27 70 -47 207q-18 125 -18 303z" />
<glyph unicode="H" d="M113 0v1405q0 23 14 25q20 4 98 4v-600h434v571q0 23 15 25q20 4 98 4v-1407q0 -20 -14 -23q-20 -4 -99 -4v727h-434v-700q0 -20 -14 -23q-20 -4 -98 -4z" />
<glyph unicode="I" horiz-adv-x="335" d="M111 0v1376q0 45 16 51q15 6 98 7v-1407q0 -20 -14 -23q-20 -4 -100 -4z" />
<glyph unicode="J" horiz-adv-x="616" d="M43 88q0 37 20 70q72 -74 173 -74q53 0 85.5 20.5t47.5 65.5q18 53 20 90q4 57 4 117v1001q0 43 15 49t98 7v-1090q0 -78 -4 -108q-8 -57 -21 -99q-14 -47 -43 -82q-27 -31 -76 -53q-51 -23 -114 -22q-100 0 -152 32q-53 35 -53 76z" />
<glyph unicode="K" horiz-adv-x="802" d="M111 0v1405q0 23 14 25q20 4 98 4v-625l412 618q29 6 72 7q50 0 49 -21q0 -8 -6 -18l-412 -586q52 -33 118.5 -105.5t135.5 -174.5t115.5 -238t46.5 -268q0 -12 -6 -17q-12 -8 -37 -8q-57 0 -74 2q-83 280 -153.5 430.5t-159.5 239.5q-35 35 -101 65v-708q0 -20 -14 -23 q-20 -4 -98 -4z" />
<glyph unicode="L" horiz-adv-x="671" d="M113 0v1393q0 31 14 37q10 4 100 4v-1328h406v-79q0 -27 -29 -27h-491z" />
<glyph unicode="M" horiz-adv-x="1017" d="M113 0v1405q0 29 26 29h76l223 -719l72 -246l70 240l215 696q10 29 28 29h86v-1407q0 -20 -14 -23q-20 -4 -100 -4l4 592l18 577l-153 -512l-119 -348q-6 -18 -23 -18h-53l-115 366l-30 97l-66 215l-57 192q16 -377 20 -555l2 -579q0 -20 -14 -23q-20 -4 -96 -4z" />
<glyph unicode="N" horiz-adv-x="931" d="M113 0v1405q0 29 26 29h80l246 -566q63 -172 254 -647q-10 170 -10 699v485q0 23 14 25q20 4 98 4v-1407q0 -27 -26 -27h-78l-252 575q-45 102 -250 642q8 -270 8 -689v-501q0 -18 -12 -23q-16 -4 -98 -4z" />
<glyph unicode="O" horiz-adv-x="911" d="M78 727q0 391 94 559t299 168q200 0 283 -160q82 -158 82 -565q0 -414 -91 -579q-92 -170 -296.5 -170t-286.5 161q-84 164 -84 586zM203 692q0 -326 55 -461t195 -135q141 0 202 144q59 139 60 491q0 338 -55.5 473t-192.5 135q-135 0 -201 -149q-63 -146 -63 -498z" />
<glyph unicode="P" horiz-adv-x="755" d="M113 0v1405q0 29 26 29h213q358 0 359 -390q0 -224 -99 -331q-98 -106 -268 -107h-121v-579q0 -18 -12 -23q-16 -4 -98 -4zM223 713h129q236 0 236 340q0 279 -226 278h-139v-618z" />
<glyph unicode="Q" horiz-adv-x="911" d="M78 727q0 391 94 559t299 168q200 0 283 -160q82 -158 82 -565q0 -356 -68 -528q-70 -176 -219 -209q14 -90 45 -131q29 -39 80 -39q74 0 133 35q18 -25 18 -62q0 -33 -55 -51t-117 -18q-90 0 -145 59q-55 57 -86 195q-127 6 -199 75q-72 68 -108 230q-37 159 -37 442z M203 692q0 -326 55 -461t195 -135q141 0 202 144q59 139 60 491q0 338 -55.5 473t-192.5 135q-135 0 -201 -149q-63 -146 -63 -498z" />
<glyph unicode="R" horiz-adv-x="774" d="M113 0v1405q0 29 26 29h213q358 0 359 -390q0 -326 -211 -411q172 -225 207 -602q2 -16 -9 -25q-8 -4 -47 -8q-47 0 -63 2q-43 414 -199 608q-10 -2 -45 -2h-121v-579q0 -18 -12 -23q-16 -4 -98 -4zM223 713h129q236 0 236 336q0 283 -226 282h-139v-618z" />
<glyph unicode="S" horiz-adv-x="753" d="M68 88q0 43 32 80q76 -74 230 -74q246 0 245 250q0 80 -32 156q-31 70 -111 155l-221 232q-139 158 -139 291q0 125 92 200q90 76 252 76q131 0 192 -27q66 -29 66 -63q0 -37 -31 -68q-74 55 -219 56q-104 0 -170 -47q-63 -45 -64 -125q0 -94 113 -222l244 -251 q86 -92 115 -168q33 -86 32 -185q0 -170 -86 -272t-270 -102q-125 0 -199 34q-71 35 -71 74z" />
<glyph unicode="T" horiz-adv-x="749" d="M14 1327v78q0 29 27 29h696v-80q0 -27 -26 -27h-283v-1300q0 -20 -14 -23q-20 -4 -99 -4v1327h-301z" />
<glyph unicode="U" horiz-adv-x="935" d="M113 440v965q0 23 14 25q20 4 100 4v-998q0 -51 4 -112q2 -35 21 -93q15 -49 43 -79q25 -27 74 -48q45 -18 114 -18q143 0 230 43v1278q0 20 14 23q20 4 100 4v-1383q-47 -31 -141 -51t-203 -20q-92 0 -168 26q-70 25 -108 64q-37 37 -60 104q-23 70 -28 123 q-6 59 -6 143z" />
<glyph unicode="V" horiz-adv-x="860" d="M12 1425q2 8 25 9h90l227 -897q35 -152 86 -435q45 279 80 435l207 856q6 41 33 41h92l-350 -1446q-74 -6 -88 -6q-43 0 -74 120l-326 1293q-3 12 -3 21q0 5 1 9z" />
<glyph unicode="W" horiz-adv-x="1314" d="M12 1395q-1 7 -1 12q0 27 26 27h90l188 -899q35 -186 62 -398h8q12 160 55 398l158 784q6 39 33 39h80l180 -823q23 -117 27 -140l6 -42.5t8 -53.5t6 -47q2 -25 7 -62.5t7 -50.5h9q23 205 55 396l168 858q6 41 33 41h92l-289 -1446q-49 -6 -88 -6q-37 0 -62 104l-153 664 q-16 72 -62 389l-57 -387l-160 -764q-70 -4 -94 -4q-37 0 -61 122z" />
<glyph unicode="X" horiz-adv-x="870" d="M20 0l345 743l-289 670q-6 16 10 19q12 2 119 2l104 -248q70 -162 137 -346q92 233 142 346l98 227q6 16 21 19q10 2 106 2l-297 -691l332 -720q3 -6 3 -11q0 -12 -20 -12h-116l-140 307l-143 338q-68 -170 -145 -336l-140 -295q-8 -14 -28 -14h-99z" />
<glyph unicode="Y" horiz-adv-x="737" d="M12 1415q-2 4 -1 7q0 7 14 10q10 2 114 2l99 -293q43 -115 86 -262q49 -166 53 -193q14 106 139 457l90 270q2 12 21 17q20 4 102 4l-299 -848v-559q0 -18 -14 -23q-16 -4 -99 -4v582z" />
<glyph unicode="Z" horiz-adv-x="802" d="M47 45q0 29 10 55l564 1231h-435q-55 0 -84 -4v78q0 29 29 29h610q12 -16 13 -39q0 -27 -13 -58l-569 -1235h461q78 0 108 13v-88q0 -27 -26 -27h-649q-19 16 -19 45z" />
<glyph unicode="[" horiz-adv-x="847" d="M305 -406v2046q0 27 14 33q20 8 74 8h436q0 -66 -8 -86q-6 -16 -39 -16h-364v-1878h409q0 -74 -10 -90.5t-39 -16.5h-473z" />
<glyph unicode="\" horiz-adv-x="618" d="M23 1532q-6 25 12 31q12 4 96 4l467 -1598q6 -23 -12 -26q-25 -4 -97 -4z" />
<glyph unicode="]" horiz-adv-x="847" d="M20 -410q0 71 7 86q6 16 41 17h364v1884h-409q0 74 10 90t39 16h473v-2052q0 -29 -14.5 -35t-75.5 -6h-435z" />
<glyph unicode="^" horiz-adv-x="878" d="M117 494l329 299l291 -267q20 -18 21 -37q0 -23 -17 -38q-14 -14 -41 -19l-264 215l-221 -190q-33 -23 -45 -23q-23 0 -37 17q-12 16 -16 43z" />
<glyph unicode="_" horiz-adv-x="782" d="M33 -193q0 59 4 84q3 18 24 19h689v-49q0 -20 -2 -31q-2 -14 -10.5 -18.5t-14.5 -4.5h-690z" />
<glyph unicode="`" horiz-adv-x="329" d="M0 1411q2 20 20 57q16 31 33 31q2 0 133 -108q117 -96 146 -131q-23 -66 -43 -66q-2 0 -139 102q-140 105 -150 115z" />
<glyph unicode="a" horiz-adv-x="749" d="M74 285q0 104 24 174q23 68 72 102q45 33 94 45t115 12q109 0 168 -24v180q0 92 -41 127t-121 35q-184 0 -295 -51q-16 33 -16 65q0 29 16 41q35 23 125 37q98 16 197 16q125 0 186 -57q59 -55 59 -190v-123q0 -324 -10 -621q-119 -74 -278 -73q-39 0 -88 4 q-31 2 -78 22.5t-68 48.5q-27 35 -43 90q-18 60 -18 140zM190 289q0 -72 15 -115q16 -47 45 -65q31 -18 59 -25q27 -6 76 -6q104 0 152 45q10 160 10 387q-53 20 -133 20q-104 0 -164 -47t-60 -194z" />
<glyph unicode="b" horiz-adv-x="819" d="M119 41v1409q0 37 20 47q16 8 92 8v-544q106 84 254 83q131 -2 199 -92q70 -92 70 -301q0 -178 -27 -299q-29 -131 -65 -196q-39 -70 -95 -113q-47 -37 -104 -51q-49 -12 -109 -12q-157 0 -235 61zM231 119q39 -37 138 -37q262 0 262 539q0 180 -45 249.5t-150 69.5 q-125 0 -205 -80v-741z" />
<glyph unicode="c" horiz-adv-x="675" d="M82 489q0 141 24 246q25 106 58 162q34 58 86 92q57 37 96 45q51 10 105 10q74 0 123 -24.5t49 -56.5q0 -37 -15 -68q-70 47 -159 47q-43 0 -70 -8q-31 -9 -68 -37q-33 -25 -59 -74q-23 -41 -39 -135q-16 -92 -16 -205q0 -237 55 -319t168 -82q121 0 188 61 q14 -31 15 -65q0 -37 -68 -67.5t-166 -30.5q-74 0 -127 18q-51 18 -94 70q-45 53 -66 157q-20 100 -20 264z" />
<glyph unicode="d" horiz-adv-x="821" d="M84 483q0 281 94 420q95 141 246 141q104 0 168 -45v451q0 39 20 47q18 8 95 8v-1464q-121 -61 -291 -61q-76 0 -131 16q-51 16 -103 65q-49 49 -73 152q-25 104 -25 270zM205 494q0 -174 31 -267q31 -94 73 -118q41 -23 117 -27q102 0 168 41l-2 780q-53 41 -135 41 q-109 0 -180.5 -108.5t-71.5 -341.5z" />
<glyph unicode="e" horiz-adv-x="768" d="M78 457q0 145 22 262q22 111 56 172q33 57 86 96t98 47q51 10 104 10q258 0 258 -323q0 -156 -20 -246q-182 -37 -489 -37q0 -137 32 -223q31 -78 78 -102q45 -23 129 -23q150 0 246 70q14 -35 14 -80q0 -37 -84 -68q-88 -33 -194 -32q-80 0 -135 18q-57 18 -104.5 65.5 t-72 145.5t-24.5 248zM195 532q270 0 389 29q8 57 8 137q-2 127 -37 187q-33 57 -121 57q-49 0 -80 -14q-39 -18 -71 -54q-35 -37 -60 -124q-26 -91 -28 -218z" />
<glyph unicode="f" horiz-adv-x="505" d="M31 926q0 63 4 84q2 14 26 14h125v129q0 96 21 160q20 66 53 104q25 31 80 60q45 25 88 30q40 6 92 6q176 0 176 -63q0 -25 -12 -64q-68 25 -152 25q-51 0 -83 -8q-45 -10 -74 -31q-37 -25 -56 -78q-20 -61 -20 -137v-133h213q0 -63 -4 -84q-2 -14 -25 -14h-184v-899 q0 -27 -29 -27h-84v926h-155z" />
<glyph unicode="g" horiz-adv-x="823" d="M68 -186q0 72 49 139t119 119q-68 20 -103 45q-37 27 -33 63q0 78 129 180q-129 80 -129 314q0 184 93 276q94 94 245 94q43 0 92 -12h254q12 -31 13 -53q0 -45 -47 -45q-52 0 -111 12q113 -74 113 -254q0 -170 -80 -274q-78 -102 -252 -103q-74 0 -117 15 q-86 -71 -86 -117q0 -47 297 -84q135 -18 203 -66q72 -49 71 -159q0 -127 -102 -217t-295 -90q-323 0 -323 217zM182 -164q0 -68 45 -100q47 -35 174 -35q131 0 201 57q72 59 72 131q0 78 -53 109q-47 29 -177 41q-102 12 -114 14q-59 -41 -103 -102q-45 -64 -45 -115z M217 676q0 -131 43 -199q45 -70 168 -69q104 0 158 86q53 88 53 221q0 242 -205 241q-96 0 -158 -71q-59 -68 -59 -209z" />
<glyph unicode="h" horiz-adv-x="808" d="M111 0v1450q0 37 20 47q16 8 92 8v-549q109 88 260 88q137 0 186.5 -67.5t49.5 -206.5v-743q0 -20 -14 -23q-20 -4 -101 -4v745q0 92 -35 144q-34 49 -129 49q-129 0 -217 -82v-829q0 -20 -14 -23q-20 -4 -98 -4z" />
<glyph unicode="i" horiz-adv-x="348" d="M113 1370q0 94 67 94q63 0 64 -92q-4 -96 -70 -96q-63 0 -61 94zM117 0v969q0 39 20 47q18 8 96 8v-997q0 -18 -16 -23q-20 -4 -100 -4z" />
<glyph unicode="j" horiz-adv-x="370" d="M-231 -305q0 39 18 63q90 -53 197 -53q94 0 120 55q27 53 27 187v1022q0 39 19 47q16 8 94 8v-1100q0 -156 -53.5 -239.5t-198.5 -83.5q-102 0 -164 28q-59 29 -59 66zM127 1370q0 94 68 94q63 0 63 -92q-4 -96 -70 -96q-63 0 -61 94z" />
<glyph unicode="k" horiz-adv-x="800" d="M117 0v1450q0 37 20 47q16 8 92 8v-585q59 59 139.5 91.5t149.5 32.5q180 0 180 -180q0 -61 -24.5 -120.5t-65.5 -100.5q-40 -40 -67 -61q-33 -25 -58 -39q82 -14 156 -92q72 -76 94 -220q6 -43 6 -94t-6 -108q-4 -25 -20 -27q-10 -2 -107 -2q8 57 8 127q0 98 -18 162 q-35 117 -104 157q-50 29 -101 30q-20 0 -41 -5l-121 -45v-399q0 -18 -14 -23q-16 -4 -98 -4zM229 514q346 119 346 322q0 104 -104 104q-131 0 -242 -131v-295z" />
<glyph unicode="l" horiz-adv-x="346" d="M117 0v1450q0 37 18 47q16 8 94 8v-1478q0 -20 -14 -23q-20 -4 -98 -4z" />
<glyph unicode="m" horiz-adv-x="1210" d="M117 0v977q154 68 303 67q141 0 196 -73q113 74 261 73q141 0 186 -69q43 -68 43 -227v-721q0 -20 -14 -23q-20 -4 -99 -4v754q0 109 -26 147q-29 41 -109 41q-104 0 -188 -55v-860q0 -18 -11 -23h-2q-16 -4 -100 -4v801q-3 77 -31 110q-27 33 -108 33q-92 0 -189 -45 v-872q0 -18 -16 -23q-20 -4 -96 -4z" />
<glyph unicode="n" horiz-adv-x="819" d="M113 0v973q168 72 331 71q158 0 220 -65q61 -65 61 -215v-737q0 -20 -14 -23q-20 -4 -101 -4v733q0 117 -34.5 164t-135.5 47q-125 0 -215 -47v-870q0 -20 -14 -23q-20 -4 -98 -4z" />
<glyph unicode="o" horiz-adv-x="782" d="M63 510q0 535 343 534q164 0 241 -114q76 -113 76 -418q0 -532 -340 -532q-83 0 -135 18q-55 18 -98 72q-43 51 -66 163q-21 103 -21 277zM184 502q0 -164 27 -266q25 -96 65 -127t111 -31q215 0 215 438q0 254 -47 340q-49 88 -154 88q-106 0 -161.5 -98t-55.5 -344z " />
<glyph unicode="p" horiz-adv-x="817" d="M117 -356v1319q131 82 295 81q168 0 254 -96q84 -92 84 -336q0 -154 -23 -278q-20 -115 -57 -184q-35 -66 -82 -107q-43 -37 -88 -51q-40 -12 -86 -12q-126 0 -185 73v-448q-33 -8 -59 -8q-53 0 -53 47zM229 176q55 -94 154 -94q244 6 244 508q0 209 -52 280 q-51 74 -169 74q-100 0 -177 -51v-717z" />
<glyph unicode="q" horiz-adv-x="833" d="M82 453q0 301 110.5 446t303.5 145q135 0 223 -63v-1337q0 -33 -12 -41q-10 -8 -58 -9h-24q-6 0 -12.5 1.5t-8.5 1.5v491q-74 -109 -229 -108q-293 0 -293 473zM205 451q0 -369 209 -369h9q53 0 101 31q52 34 80 98v696q-47 37 -133 37q-266 1 -266 -493z" />
<glyph unicode="r" horiz-adv-x="561" d="M113 0v954q133 90 274 90q147 0 148 -71q0 -37 -17 -68q-51 31 -115 31q-100 0 -176 -57v-852q0 -20 -14 -23q-20 -4 -100 -4z" />
<glyph unicode="s" horiz-adv-x="751" d="M80 68q0 35 24 69q90 -53 224 -53q221 0 221 158q0 113 -115 198l-215 156q-82 57 -108.5 104.5t-26.5 110.5q0 109 88 170q92 63 246 63q80 0 151 -20q63 -18 86 -40.5t23 -41.5q0 -35 -27 -63q-102 66 -223 65q-96 0 -155.5 -35t-59.5 -98q0 -76 100 -143l222 -158 q139 -115 139 -254q0 -135 -88 -205q-90 -72 -248 -71q-113 0 -188 26q-70 25 -70 62z" />
<glyph unicode="t" horiz-adv-x="608" d="M55 924q0 63 4 84q4 16 23 16h125v324q0 33 18.5 39t93.5 6v-369h248q0 -63 -4 -84q-4 -16 -20 -16h-224v-629q0 -59 5 -113q2 -37 26 -71q23 -31 64 -31q66 0 133 33q8 -31 8 -60q0 -37 -47 -55q-49 -18 -119 -18q-59 0 -98 22q-37 23 -55 70q-16 43 -23 96 q-6 49 -6 129v627h-152z" />
<glyph unicode="u" horiz-adv-x="849" d="M119 346v649q0 25 14 27q10 2 100 2v-692q0 -147 39 -199q41 -53 158 -53q111 0 188 47v868q0 23 15 25q20 4 98 4v-973q-139 -72 -311 -71.5t-238 83.5q-63 82 -63 283z" />
<glyph unicode="v" horiz-adv-x="727" d="M53 987q-3 9 -3 15q0 13 11 18q10 4 107 4l88 -356q37 -143 57 -244l43 -215l17 -82h2q47 281 108 543l80 325q3 22 19 25q20 4 98 4l-262 -1036q-45 -4 -76 -4q-23 0 -51 102z" />
<glyph unicode="w" horiz-adv-x="1130" d="M49 995q-3 22 12 25q20 4 107 4l82 -373q57 -283 96 -510h6q16 94 88 445l72 375q4 29 39 28h74l88 -407q4 -14 21.5 -87t25.5 -116l19.5 -96.5l15.5 -77.5l10 -64h8q15 163 86 510l70 344q2 20 20 25q20 4 94 4q-227 -1036 -233 -1036q-45 -4 -70 -4q-14 0 -32 30 q-16 27 -29 82l-33 142q-70 287 -119 571q-57 -346 -110 -573l-56 -248q-78 -4 -88 -4q-29 0 -49 100z" />
<glyph unicode="x" horiz-adv-x="892" d="M45 0l332 537l-285 467q-6 16 10 18q12 2 109 2l104 -164l140 -244l143 248l92 140q10 16 23 18q10 2 106 2l-297 -479l320 -516q7 -10 7 -17t-9 -8q-20 -4 -121 -4l-107 164q-71 114 -172 295q-20 -39 -170 -297l-92 -139q-8 -14 -28 -19q-25 -4 -105 -4z" />
<glyph unicode="y" horiz-adv-x="755" d="M2 -334q0 39 21 66q61 -29 124 -29q127 0 187 264l-266 1022q-6 29 8 31q20 4 100 4l154 -602l59 -318q18 141 55 320l138 565q3 28 18 31q20 4 102 4l-270 -1087q-47 -182 -110 -256q-66 -76 -170 -76q-150 0 -150 61z" />
<glyph unicode="z" horiz-adv-x="743" d="M59 57q0 25 13 45l481 824h-248q-166 0 -231 -11q-4 37 -4 56q0 53 36 53h566q12 -12 12 -37q0 -33 -14 -59l-477 -822h237q184 0 248 17q2 -8 2 -53q0 -70 -43 -70h-557q-21 18 -21 57z" />
<glyph unicode="{" horiz-adv-x="581" d="M106 606q0 43 31 62q39 23 53 37q18 18 33 55t15 104q0 90 -14.5 219t-14.5 201q0 240 317 240q23 -35 23 -70q0 -37 -29 -41q-94 -2 -145 -45q-51 -41 -51 -133q0 -43 12 -174q12 -132 12 -221q0 -174 -121 -224q57 -20 90 -65q31 -43 31 -127q0 -90 -12 -225.5 t-12 -188.5q0 -131 47 -168q47 -39 164 -47q6 -28 6 -43q0 -59 -43 -59q-156 0 -222 63q-68 63 -67 211q0 78 14.5 205t14.5 219q0 80 -31 117q-29 35 -92 47q-9 22 -9 51z" />
<glyph unicode="|" horiz-adv-x="722" d="M305 -410v2044q0 23 17 29q14 6 96 6v-2048q0 -23 -17 -27q-20 -4 -96 -4z" />
<glyph unicode="}" horiz-adv-x="581" d="M37 -240q0 37 26 41q98 3 148 43q51 41 51 136q0 46 -12 178q-12 133 -12 219q0 98 30 147q29 47 90 76q-61 23 -90 64q-31 43 -30 129q0 90 12 225t12 188q0 127 -47 164q-49 39 -166 51q0 8 -1 18.5t-2 16.5t-1 8q0 59 41 60q156 0 221 -64q68 -63 68 -211 q0 -80 -14.5 -207t-14.5 -219q0 -80 31 -116q29 -35 92 -48q10 -25 10 -49q0 -41 -30 -63q-40 -22 -56 -37q-16 -16 -31 -53q-16 -43 -16 -107q0 -90 14.5 -219t14.5 -201q0 -238 -318 -237q-20 26 -20 67z" />
<glyph unicode="~" horiz-adv-x="817" d="M25 535q33 49 96 88t151 39q71 0 148 -50q80 -51 139 -51q92 0 160 82q25 20 49 2q23 -16 29 -55q-90 -133 -248 -133q-76 0 -160 51q-80 49 -127 49q-41 0 -72 -14q-39 -18 -67 -41l-19.5 -15.5t-14.5 -10.5l-5 -3q-18 -8 -37 10q-20 21 -22 52z" />
<glyph unicode="&#xa1;" horiz-adv-x="385" d="M111 948q0 41 24 66q27 27 66 26q86 0 86 -92q0 -41 -23 -65q-25 -27 -63 -27q-90 0 -90 92zM123 -406l18 1002q3 34 25 43q25 10 86 10l16 -1022q0 -20 -28 -26q-28 -7 -117 -7z" />
<glyph unicode="&#xa2;" d="M186 461q0 524 291 575v217q0 31 25 43q20 10 78 11v-267q57 -4 102 -24.5t45 -38.5q0 -55 -14 -84q-70 45 -148 45q-51 0 -94 -16q-41 -16 -84 -62q-41 -45 -63 -147q-23 -106 -23 -252q0 -135 14 -207q16 -82 47 -115q33 -37 70 -45q41 -10 103 -10q96 0 178 63 q14 -27 14 -73q0 -29 -59 -60q-59 -33 -133 -34v-218q0 -31 -21 -38q-25 -10 -80 -11v271q-84 10 -133 43q-47 33 -82 141q-33 105 -33 293z" />
<glyph unicode="&#xa3;" horiz-adv-x="782" d="M31 569v49q0 10 4 31q4 16 8 19q8 4 14 4h123q0 301 84 426q82 121 240 121q86 0 145.5 -27t59.5 -70q0 -37 -21 -71q-74 55 -168 55q-74 0 -119 -31q-47 -31 -77.5 -129t-30.5 -266v-8h301q0 -53 -4 -82q-2 -20 -25 -21h-272q0 -264 14 -456l375 -9q10 -37 10 -53 q0 -51 -112 -51h-381q-18 313 -19 569h-149z" />
<glyph unicode="&#xa5;" d="M78 1415q-6 14 12 17q10 2 115 2l98 -293q37 -104 88 -267q47 -147 49 -167q4 53 138 436l94 270q2 12 20 17q20 4 103 4l-228 -641h201q0 -55 -8 -74q-8 -20 -39 -21h-189l-36 -108v-127h274q0 -57 -8 -74q-10 -20 -39 -20h-227v-342q0 -20 -15 -23q-20 -4 -98 -4v369 h-279q0 59 9 75q10 18 39 19h231v119l-43 116h-236q0 55 9 74q8 20 39 21h153z" />
<glyph unicode="&#xa6;" horiz-adv-x="460" d="M174 -397v809q0 25 14.5 35t45 10t53.5 -8v-814q0 -29 -11 -32q-12 -6 -47 -6q-37 0 -55 6zM174 682v793q0 47 59 47q31 0 54 -9v-798q0 -25 -10.5 -33t-47.5 -8q-32 0 -55 8z" />
<glyph unicode="&#xa7;" horiz-adv-x="749" d="M96 805q0 135 127 209l-20 22q-49 55 -66 92q-20 45 -20 93q0 100 82 161q80 59 219 60q86 0 149 -29q61 -27 74 -59q4 -12 4 -23q0 -39 -24 -69q-80 61 -197 61q-86 0 -133 -33q-49 -33 -49 -88q0 -51 69 -131q18 -20 121 -110q98 -86 135 -130q88 -94 88 -204 q0 -51 -32 -113q-31 -57 -95 -94l21 -23q53 -59 67 -92q18 -40 19 -92q0 -98 -82 -159.5t-217 -61.5q-88 0 -152 28q-61 29 -73 60q-4 8 -5 22q0 39 25 70q77 -61 197 -61q88 0 135 32.5t47 87.5q0 61 -70 131q-37 37 -118.5 109t-137.5 131q-88 101 -88 203zM203 799 q0 -74 69 -156q20 -27 174 -151q39 16 74 63q31 43 31 78q0 74 -72 158q-37 41 -174 149q-45 -14 -73.5 -59t-28.5 -82z" />
<glyph unicode="&#xa8;" horiz-adv-x="448" d="M0 1329q0 37 20 60q20 25 60 24q40 0 61 -24q20 -23 21 -60q0 -35 -23 -61q-20 -23 -59 -23q-80 0 -80 84zM289 1329q0 33 22 60q20 25 58 24q40 0 61 -24q20 -23 21 -60q0 -35 -23 -61q-20 -23 -59 -23q-80 0 -80 84z" />
<glyph unicode="&#xa9;" horiz-adv-x="948" d="M78 1106q0 451 409 450q197 0 293 -102q94 -100 94 -346q0 -219 -104 -336t-295 -117q-203 0 -301 99q-96 96 -96 352zM168 1100q0 -197 73.5 -277t225.5 -80q145 0 231 92.5t86 276.5q0 195 -73 279q-74 82 -222 82q-321 0 -321 -373zM311 1081q0 184 54 240 q55 59 139 59q31 0 61.5 -12t30.5 -22q0 -31 -14 -54q-35 20 -68 21q-59 0 -92 -45q-35 -47 -35 -189q0 -113 24.5 -143.5t82.5 -30.5q41 0 88 27q14 -27 14 -49q0 -14 -37 -29q-39 -16 -74 -16q-96 0 -135 44.5t-39 198.5z" />
<glyph unicode="&#xaa;" horiz-adv-x="684" d="M100 838q0 143 64 194q66 53 178 53q76 0 143 -22v160q0 129 -147 129q-109 0 -207 -49q-15 15 -18 43q-4 29 10 43q76 66 248 65q213 0 213 -197v-608q-113 -57 -252 -57q-113 0 -172.5 47t-59.5 199zM195 831q0 -92 41 -122q40 -31 116 -31q86 0 133 31v268 q-49 20 -114 20q-90 0 -133 -31t-43 -135z" />
<glyph unicode="&#xab;" horiz-adv-x="851" d="M57 522q0 25 76 150q63 104 154 237l75 115q18 0 35 -14q23 -18 27 -29l6 -14q0 -23 -65 -136q-59 -100 -134 -208l-65 -101q272 -403 272 -452q-27 -70 -65 -70q-316 463 -316 522zM391 512q0 20 76 141q41 66 149 224l76 104q12 0 35 -14q18 -12 27 -27l6 -14 q0 -27 -64 -129q-39 -61 -131 -195l-65 -90q266 -352 266 -399q-25 -68 -64 -68q-311 416 -311 467z" />
<glyph unicode="&#xac;" horiz-adv-x="817" d="M68 553q0 25 12 39q12 16 29 16h622v-381q-18 -8 -55 -8q-53 0 -53 39v242h-545q-10 26 -10 53z" />
<glyph unicode="&#xad;" horiz-adv-x="591" d="M88 526v49q0 20 2 31q4 16 8 19q8 4 17 4h391q0 -53 -4 -82q-2 -20 -25 -21h-389z" />
<glyph unicode="&#xae;" horiz-adv-x="948" d="M78 1106q0 451 409 450q197 0 293 -102q94 -100 94 -346q0 -219 -104 -336t-295 -117q-203 0 -301 99q-96 96 -96 352zM168 1100q0 -197 73.5 -277t225.5 -80q145 0 231 92.5t86 276.5q0 195 -73 279q-74 82 -222 82q-321 0 -321 -373zM352 844v530q0 10 13 10h100 q170 0 170 -147q0 -111 -84 -152q80 -82 96 -225q0 -14 -22 -18l-3 1q-3 1 -7.5 1h-10.5h-24q-23 166 -97 225h-67v-209q0 -10 -10 -14q-6 -2 -41 -2h-13zM416 1128h47q104 0 104 109q0 90 -102 90h-49v-199z" />
<glyph unicode="&#xaf;" horiz-adv-x="522" d="M0 1313q4 55 47 55h467q10 -25 10 -51q-2 -57 -45 -57h-473q-6 22 -6 53z" />
<glyph unicode="&#xb0;" horiz-adv-x="757" d="M199 1335q0 186 192 187q88 0 133 -41q43 -39 43 -144q0 -92 -49 -139q-51 -47 -141 -47q-92 0 -133 39q-45 41 -45 145zM283 1331q0 -100 96 -100q106 0 106 106q0 104 -94 105q-108 0 -108 -111z" />
<glyph unicode="&#xb1;" horiz-adv-x="884" d="M86 27v49q0 20 2 30q4 16 8 19q8 4 17 4h690q0 -57 -4 -82q-4 -20 -25 -20h-688zM88 573v50q0 20 2 30q4 16 8 19q8 4 17 4h280v278q0 22 19 25q25 4 84 4v-307h307q0 -59 -4 -84q-3 -18 -25 -19h-278v-280q0 -18 -19 -23q-25 -4 -84 -4v307h-307z" />
<glyph unicode="&#xb2;" horiz-adv-x="819" d="M106 633q0 43 19 65q53 59 180 170q131 115 184 183q59 76 60 153q0 59 -35 99q-34 37 -123 36q-115 0 -235 -90q-25 33 -25 70q0 43 96 90q92 45 205 45q137 0 192.5 -59.5t55.5 -161.5q0 -74 -45 -150q-46 -77 -98 -129l-140 -133q-104 -98 -127 -123h439q8 -33 8 -49 q0 -57 -39 -57h-563q-9 14 -9 41z" />
<glyph unicode="&#xb3;" horiz-adv-x="845" d="M125 672q0 39 31 63q78 -59 215 -59q111 0 174 45t63 125q0 55 -39 92q-41 39 -100 47q-41 8 -168 8q-12 14 -12 51q0 41 37 41q61 0 135 -8q106 70 106 162q0 43 -37 78q-39 35 -127 35q-138 0 -239 -80q-25 25 -25 55q0 33 17 41q90 86 284 86q131 0 189 -51 q59 -53 59 -133q0 -125 -115 -215q70 -25 109 -76q41 -53 41 -123q0 -139 -96 -213q-92 -72 -258 -72q-164 0 -228 58q-16 16 -16 43z" />
<glyph unicode="&#xb4;" horiz-adv-x="329" d="M0 1249q74 74 119 113q94 82 110 94q45 35 50 35q18 0 34 -33q14 -31 19 -57q-14 -18 -111 -90q-102 -78 -176 -127q-10 0 -22 16q-6 8 -17 33z" />
<glyph unicode="&#xb5;" horiz-adv-x="856" d="M119 -391v1376q0 49 55 49q37 0 55 -8v-760q0 -180 195 -180q106 0 201 41v856q0 27 12 39t43 12q37 0 55 -8v-979q-158 -68 -311 -67q-137 0 -195 73v-407q0 -45 -61 -45q-26 0 -49 8z" />
<glyph unicode="&#x3bc;" horiz-adv-x="856" d="M119 -391v1376q0 49 55 49q37 0 55 -8v-760q0 -180 195 -180q106 0 201 41v856q0 27 12 39t43 12q37 0 55 -8v-979q-158 -68 -311 -67q-137 0 -195 73v-407q0 -45 -61 -45q-26 0 -49 8z" />
<glyph unicode="&#xb6;" horiz-adv-x="1116" d="M88 864q0 293 107 439q109 150 299 149q135 0 237 -53v-1364q0 -41 -57 -41q-35 0 -53 8v422q-70 -35 -187 -35q-152 0 -250 109q-96 104 -96 366zM203 874q0 -387 258 -391q90 -4 157 37v805q-41 29 -139 29q-135 0 -205 -123q-71 -126 -71 -357zM885 2v1364q0 47 59 47 q18 0 53 -10v-1368q0 -22 -12 -31q-10 -8 -45 -8q-37 0 -55 6z" />
<glyph unicode="&#xb7;" horiz-adv-x="423" d="M121 551q0 39 24.5 65.5t61.5 26.5q90 0 90 -92q0 -39 -24.5 -65.5t-65.5 -26.5q-86 0 -86 92z" />
<glyph unicode="&#xb8;" horiz-adv-x="256" d="M0 -375q10 53 20 68q9 3 19 0q2 0 12 -5t19 -7q20 -6 41 -7q70 0 69 74q0 72 -67 72l-80 -13l39 199h73l-26 -129q4 4 37 4q41 0 71 -31q29 -29 29 -88q0 -78 -43 -118q-41 -39 -104 -39q-62 0 -109 20z" />
<glyph unicode="&#xb9;" horiz-adv-x="833" d="M125 639q0 59 39 59h231v631l-250 -51q-14 20 -14 53q0 41 39 53q229 70 301 70q25 0 39 -6v-750h195q6 -27 6 -51q0 -55 -37 -55h-543q-6 27 -6 47z" />
<glyph unicode="&#xba;" horiz-adv-x="710" d="M86 1020q0 217 76 328q74 106 207 106q135 0 196.5 -92t61.5 -340q0 -428 -279 -428q-133 0 -198 90q-64 88 -64 336zM184 1012q0 -186 39 -252q41 -70 125 -70q182 0 182 334q0 186 -38 256q-41 72 -121 72q-187 0 -187 -340z" />
<glyph unicode="&#xbb;" horiz-adv-x="847" d="M88 111q0 49 266 401l-63 90q-82 117 -131 195q-66 100 -66 129q0 39 64 57q305 -420 305 -471q0 -25 -78 -143q-70 -106 -158 -222l-77 -104q-4 2 -17 6q-10 4 -27 21q-18 18 -18 41zM412 68q0 18 69 135l135 217l68 102q-264 391 -264 445q0 16 18 32q16 14 33 21l16 4 q305 -449 306 -502q0 -31 -78 -155q-92 -150 -160 -248l-78 -119l-18 6q-12 4 -29 21q-18 18 -18 41z" />
<glyph unicode="&#xbc;" horiz-adv-x="1794" d="M125 639q0 59 39 59h231v631l-250 -51q-14 20 -14 53q0 41 39 53q229 70 301 70q25 0 39 -6v-750h195q6 -27 6 -51q0 -55 -37 -55h-543q-6 27 -6 47zM485 29l818 1401q8 27 36 26q41 0 76 -43l-819 -1411q-10 -18 -33 -18q-51 0 -78 45zM1012 205q0 27 14 63 q41 127 148 293q111 172 204 262q37 39 92 39q10 0 48 -6v-596h143q10 -27 10 -55q0 -53 -35 -53h-118v-123q0 -39 -62 -39q-20 0 -45 6v156h-383q-16 20 -16 53zM1122 254h291l4 467q-82 -76 -168 -209q-90 -141 -127 -258z" />
<glyph unicode="&#xbd;" horiz-adv-x="1863" d="M125 639q0 59 39 59h231v631l-250 -51q-14 20 -14 53q0 41 39 53q229 70 301 70q25 0 39 -6v-750h195q6 -27 6 -51q0 -55 -37 -55h-543q-6 27 -6 47zM485 29l818 1401q8 27 36 26q41 0 76 -43l-819 -1411q-10 -18 -33 -18q-51 0 -78 45zM1133 41q0 45 18 65 q53 59 180 170q125 109 184.5 185t59.5 151q0 59 -35 99q-34 37 -123 37q-115 0 -235 -91q-25 35 -25 70q0 41 96 88q98 47 205 47q137 0 193 -59q55 -57 55 -162q0 -74 -45 -149q-46 -77 -98 -130q-53 -53 -140 -131q-96 -88 -127 -125h439q8 -33 8 -49q0 -57 -39 -57h-563 q-8 14 -8 41z" />
<glyph unicode="&#xbe;" horiz-adv-x="1787" d="M125 672q0 39 31 63q78 -59 215 -59q111 0 174 45t63 125q0 55 -39 92q-41 39 -100 47q-41 8 -168 8q-12 14 -12 51q0 41 37 41q61 0 135 -8q106 70 106 162q0 43 -37 78q-39 35 -127 35q-138 0 -239 -80q-25 25 -25 55q0 33 17 41q90 86 284 86q131 0 189 -51 q59 -53 59 -133q0 -125 -115 -215q70 -25 109 -76q41 -53 41 -123q0 -139 -96 -213q-92 -72 -258 -72q-164 0 -228 58q-16 16 -16 43zM498 29l817 1401q8 27 37 26q41 0 75 -43l-819 -1411q-10 -18 -33 -18q-50 0 -77 45zM1006 205q0 27 14 63q41 127 147 293 q111 172 205 262q37 39 92 39q10 0 47 -6v-596h144q10 -27 10 -55q0 -53 -35 -53h-119v-123q0 -39 -61 -39q-20 0 -45 6v156h-383q-16 20 -16 53zM1116 254h291l4 467q-82 -76 -168 -209q-90 -141 -127 -258z" />
<glyph unicode="&#xbf;" horiz-adv-x="616" d="M29 -109q0 78 28 160q25 70 64 127l82 111q51 70 65 94q37 63 37 139q0 14 -4 56q-4 33 -6 40q-4 10 0 21q18 29 102 12q23 -55 23 -125q0 -94 -47 -178q-41 -66 -90 -131q-61 -80 -101 -154q-35 -68 -35 -151q0 -199 199 -199q117 0 197 62q14 -37 14 -88q0 -29 -78 -58 q-80 -29 -164 -28q-125 0 -206 69q-80 67 -80 221zM254 946q0 37 25 66q25 27 65 26q86 0 86 -92q0 -37 -24 -65q-25 -27 -62 -27q-90 0 -90 92z" />
<glyph unicode="&#xc0;" horiz-adv-x="890" d="M14 2l387 1421q4 18 39 19q31 0 49 -6l388 -1409q4 -16 -6.5 -22.5t-41.5 -6.5q-49 0 -67 2l-103 395h-426l-94 -372q-3 -25 -55 -25q-33 0 -70 4zM209 1821q2 20 20 57q16 31 33 31q2 0 133 -109q117 -96 146 -131q-23 -66 -43 -65q-2 0 -140 102q-139 105 -149 115z M260 500h371l-99 379q-78 305 -86 401q-16 -137 -88 -401z" />
<glyph unicode="&#xc1;" horiz-adv-x="890" d="M14 2l387 1421q4 18 39 19q31 0 49 -6l388 -1409q4 -16 -6.5 -22.5t-41.5 -6.5q-49 0 -67 2l-103 395h-426l-94 -372q-3 -25 -55 -25q-33 0 -70 4zM260 500h371l-99 379q-78 305 -86 401q-16 -137 -88 -401zM362 1659q74 74 119 113l113 94q45 35 47 35q18 0 33 -31 q18 -35 20 -60q-18 -23 -110 -92l-176 -125q-8 0 -21 17q-10 12 -18 32z" />
<glyph unicode="&#xc2;" horiz-adv-x="890" d="M14 2l387 1421q4 18 39 19q31 0 49 -6l388 -1409q4 -16 -6.5 -22.5t-41.5 -6.5q-49 0 -67 2l-103 395h-426l-94 -372q-3 -25 -55 -25q-33 0 -70 4zM195 1636l227 234q16 4 27 4q27 0 40 -19q199 -199 199 -219q0 -12 -26.5 -26.5t-57.5 -14.5q-141 147 -158 177 q-150 -174 -174 -175q-50 0 -77 39zM260 500h371l-99 379q-78 305 -86 401q-16 -137 -88 -401z" />
<glyph unicode="&#xc3;" horiz-adv-x="890" d="M14 2l387 1421q4 18 39 19q31 0 49 -6l388 -1409q4 -16 -6.5 -22.5t-41.5 -6.5q-49 0 -67 2l-103 395h-426l-94 -372q-3 -25 -55 -25q-33 0 -70 4zM152 1688q84 139 208 139q45 0 95 -53q49 -51 92 -52q47 0 76 23q27 20 45 47q16 23 22 23q10 0 23 -17q10 -12 16 -33 l6 -16q-12 -27 -33 -53q-16 -20 -69 -54q-47 -29 -101 -28q-70 0 -114 53q-45 55 -78 55q-34 0 -61 -24q-29 -27 -43 -45q-16 -23 -25 -23q-32 1 -59 58zM260 500h371l-99 379q-78 305 -86 401q-16 -137 -88 -401z" />
<glyph unicode="&#xc4;" horiz-adv-x="890" d="M14 2l387 1421q4 18 39 19q31 0 49 -6l388 -1409q4 -16 -6.5 -22.5t-41.5 -6.5q-49 0 -67 2l-103 395h-426l-94 -372q-3 -25 -55 -25q-33 0 -70 4zM223 1739q0 37 21 59q23 25 59 25q39 0 59 -23q23 -27 23 -61q0 -33 -23 -60q-23 -25 -59 -24q-80 0 -80 84zM260 500h371 l-99 379q-78 305 -86 401q-16 -137 -88 -401zM512 1739q0 37 20 59q20 25 60 25q41 0 61.5 -22.5t20.5 -61.5q0 -33 -23 -60q-20 -25 -59 -24q-80 0 -80 84z" />
<glyph unicode="&#xc5;" horiz-adv-x="890" d="M14 2l387 1421q4 18 39 19q31 0 49 -6l388 -1409q4 -16 -6.5 -22.5t-41.5 -6.5q-49 0 -67 2l-103 395h-426l-94 -372q-3 -25 -55 -25q-33 0 -70 4zM260 500h371l-99 379q-78 305 -86 401q-16 -137 -88 -401zM260 1769q0 186 193 187q90 0 135 -41q41 -39 41 -143 q0 -186 -191 -187q-90 0 -133 41q-45 43 -45 143zM348 1765q0 -98 92 -98q102 0 103 105q0 100 -90 100q-53 0 -78 -25q-27 -27 -27 -82z" />
<glyph unicode="&#xc6;" horiz-adv-x="1312" d="M37 2l672 1409q6 23 36 23h515q0 -78 -3 -88q-4 -16 -20 -17h-383v-493h358q0 -63 -4 -88q-2 -16 -18 -17h-336v-627h403q0 -70 -4 -90q-2 -14 -20 -14h-492v395h-401l-178 -372q-9 -25 -56 -25q-32 0 -69 4zM389 500h352v800q-78 -215 -174 -430z" />
<glyph unicode="&#xc7;" horiz-adv-x="720" d="M80 649q0 205 24 359q25 156 62 237q37 84 92 133q53 47 107 64q45 14 112 14q94 0 141 -33q49 -35 50 -69q0 -37 -21 -70q-70 63 -153 64q-49 0 -86 -13q-39 -12 -80 -57q-43 -47 -70 -116.5t-45 -205.5q-16 -117 -16 -309q0 -156 20 -282q18 -113 55 -168.5t76 -76 t92 -20.5q70 0 125 27q59 29 88 63q20 -35 21 -71q0 -47 -66 -90q-65 -43 -159 -49l-21 -103q4 4 37 4q39 0 69.5 -30.5t30.5 -88.5q0 -78 -43 -118q-41 -39 -104 -39q-61 0 -109 20q10 53 21 68q9 3 18 0q2 0 12.5 -5t18.5 -7q23 -6 41 -7q70 0 69 74q0 72 -67 72l-80 -13 l33 173q-43 2 -90 20q-39 14 -78 57t-68 115q-27 70 -43 193q-16 126 -16 284z" />
<glyph unicode="&#xc8;" horiz-adv-x="688" d="M117 0v1405q0 29 26 29h490q0 -98 -10 -103q-2 -2 -11 -2h-385v-493h361q0 -76 -2 -88q-2 -16 -23 -17h-336v-627h404q0 -80 -2 -90q-2 -14 -23 -14h-489zM162 1821q2 20 20 57q14 31 33 31q2 0 133 -109q115 -96 146 -131q-23 -66 -43 -65q-2 0 -140 102 q-139 105 -149 115z" />
<glyph unicode="&#xc9;" horiz-adv-x="688" d="M117 0v1405q0 29 26 29h490q0 -98 -10 -103q-2 -2 -11 -2h-385v-493h361q0 -76 -2 -88q-2 -16 -23 -17h-336v-627h404q0 -80 -2 -90q-2 -14 -23 -14h-489zM313 1659q74 74 119 113l113 94q45 35 47 35q18 0 33 -31q18 -35 20 -60q-18 -23 -110 -92q-74 -55 -177 -125 q-8 0 -20 17q-10 12 -19 32z" />
<glyph unicode="&#xca;" horiz-adv-x="688" d="M117 0v1405q0 29 26 29h490q0 -98 -10 -103q-2 -2 -11 -2h-385v-493h361q0 -76 -2 -88q-2 -16 -23 -17h-336v-627h404q0 -80 -2 -90q-2 -14 -23 -14h-489zM145 1636l228 234q16 4 26 4q27 0 41 -19q199 -199 199 -219q0 -12 -26.5 -26.5t-57.5 -14.5q-141 147 -158 177 q-150 -174 -174 -175q-51 0 -78 39z" />
<glyph unicode="&#xcb;" horiz-adv-x="688" d="M117 0v1405q0 29 26 29h490q0 -98 -10 -103q-2 -2 -11 -2h-385v-493h361q0 -76 -2 -88q-2 -16 -23 -17h-336v-627h404q0 -80 -2 -90q-2 -14 -23 -14h-489zM174 1739q0 37 21 59q23 25 59 25q41 0 61.5 -22.5t20.5 -61.5q0 -33 -23 -60q-23 -25 -59 -24q-80 0 -80 84z M463 1739q0 33 22 59q23 25 58 25q41 0 61.5 -22.5t20.5 -61.5q0 -33 -23 -60q-20 -25 -59 -24q-80 0 -80 84z" />
<glyph unicode="&#xcc;" horiz-adv-x="335" d="M-68 1821q2 27 18.5 57.5t35.5 30.5q4 0 135 -109q123 -102 143 -131q-23 -66 -43 -65q-2 0 -139 102q-140 105 -150 115zM111 0v1376q0 45 16 51q15 6 98 7v-1407q0 -20 -14 -23q-20 -4 -100 -4z" />
<glyph unicode="&#xcd;" horiz-adv-x="335" d="M84 1659q74 74 119 113q94 82 110 94q45 35 49 35q18 0 33 -31q18 -35 21 -60q-18 -23 -111 -92l-176 -125q-10 0 -23 17q-6 8 -16 32zM111 0v1376q0 45 16 51q15 6 98 7v-1407q0 -20 -14 -23q-20 -4 -100 -4z" />
<glyph unicode="&#xce;" horiz-adv-x="335" d="M-82 1636l227 234q16 4 27 4q25 0 41 -19q199 -199 199 -219q0 -12 -27 -26.5t-57 -14.5q-141 147 -158 177q-150 -174 -174 -175q-51 0 -78 39zM111 0v1376q0 45 16 51q15 6 98 7v-1407q0 -20 -14 -23q-20 -4 -100 -4z" />
<glyph unicode="&#xcf;" horiz-adv-x="335" d="M-53 1739q0 33 22 59q23 25 58 25q41 0 61.5 -22.5t20.5 -61.5q0 -33 -23 -60q-20 -25 -59 -24q-80 0 -80 84zM111 0v1376q0 45 16 51q15 6 98 7v-1407q0 -20 -14 -23q-20 -4 -100 -4zM236 1739q0 33 22 59q20 25 57 25q39 0 60 -23q23 -27 22 -61q0 -33 -22 -60 q-23 -25 -60 -24q-79 0 -79 84z" />
<glyph unicode="&#xd0;" horiz-adv-x="845" d="M25 705v49q0 8 4 28q4 16 8 19q8 4 14 4h64v594q0 35 51 35h205q203 0 301 -146q96 -141 96 -487q0 -248 -29 -400q-31 -160 -88 -245q-59 -88 -125 -121q-70 -35 -164 -35h-247v705h-90zM227 109h138q41 0 84 14q35 12 75 55q39 41 64 117q27 78 41 203q16 137 16 303 q0 287 -65.5 407.5t-210.5 120.5h-142v-524h213q0 -57 -4 -82q-3 -18 -24 -18h-185v-596z" />
<glyph unicode="&#xd1;" horiz-adv-x="931" d="M113 0v1405q0 29 26 29h80l246 -566q63 -172 254 -647q-10 170 -10 699v485q0 23 14 25q20 4 98 4v-1407q0 -27 -26 -27h-78l-252 575q-45 102 -250 642q8 -270 8 -689v-501q0 -18 -12 -23q-16 -4 -98 -4zM190 1688q84 139 209 139q45 0 95 -53q49 -51 92 -52q47 0 76 23 q27 20 45 47q16 23 22 23q10 0 23 -17q10 -12 16 -33l6 -16q-12 -27 -33 -53q-16 -20 -69 -54q-47 -29 -101 -28q-70 0 -114 53q-47 55 -78 55q-34 0 -62 -24q-29 -27 -43 -45q-16 -23 -24 -23q-33 1 -60 58z" />
<glyph unicode="&#xd2;" horiz-adv-x="911" d="M78 727q0 391 94 559t299 168q200 0 283 -160q82 -158 82 -565q0 -414 -91 -579q-92 -170 -296.5 -170t-286.5 161q-84 164 -84 586zM203 692q0 -326 55 -461t195 -135q141 0 202 144q59 139 60 491q0 338 -55.5 473t-192.5 135q-135 0 -201 -149q-63 -146 -63 -498z M240 1821q2 27 18 57.5t35 30.5q2 0 133 -109q127 -106 145 -131q-23 -66 -43 -65q-4 0 -141 102q-131 99 -147 115z" />
<glyph unicode="&#xd3;" horiz-adv-x="911" d="M78 727q0 391 94 559t299 168q200 0 283 -160q82 -158 82 -565q0 -414 -91 -579q-92 -170 -296.5 -170t-286.5 161q-84 164 -84 586zM203 692q0 -326 55 -461t195 -135q141 0 202 144q59 139 60 491q0 338 -55.5 473t-192.5 135q-135 0 -201 -149q-63 -146 -63 -498z M391 1659q74 74 119 113l113 94q45 35 47 35q18 0 35 -31q14 -31 18 -60q-18 -23 -111 -92l-176 -125q-10 0 -22 17q-6 8 -17 32z" />
<glyph unicode="&#xd4;" horiz-adv-x="911" d="M78 727q0 391 94 559t299 168q200 0 283 -160q82 -158 82 -565q0 -414 -91 -579q-92 -170 -296.5 -170t-286.5 161q-84 164 -84 586zM203 692q0 -326 55 -461t195 -135q141 0 202 144q59 139 60 491q0 338 -55.5 473t-192.5 135q-135 0 -201 -149q-63 -146 -63 -498z M223 1636l228 234q16 4 26 4q27 0 41 -19q199 -199 199 -219q0 -12 -26.5 -26.5t-57.5 -14.5q-141 147 -158 177q-150 -174 -174 -175q-51 0 -78 39z" />
<glyph unicode="&#xd5;" horiz-adv-x="911" d="M78 727q0 391 94 559t299 168q200 0 283 -160q82 -158 82 -565q0 -414 -91 -579q-92 -170 -296.5 -170t-286.5 161q-84 164 -84 586zM180 1688q84 139 209 139q45 0 94 -53q49 -51 92 -52q47 0 76 23q27 20 45 47q16 23 23 23q12 0 24 -17q10 -12 17 -33l4 -16 q-12 -27 -33 -53q-16 -20 -69 -54q-47 -29 -101 -28q-68 0 -115 53q-49 55 -77 55q-34 0 -62 -24q-29 -27 -43 -45q-16 -23 -24 -23q-33 1 -60 58zM203 692q0 -326 55 -461t195 -135q141 0 202 144q59 139 60 491q0 338 -55.5 473t-192.5 135q-135 0 -201 -149 q-63 -146 -63 -498z" />
<glyph unicode="&#xd6;" horiz-adv-x="911" d="M78 727q0 391 94 559t299 168q200 0 283 -160q82 -158 82 -565q0 -414 -91 -579q-92 -170 -296.5 -170t-286.5 161q-84 164 -84 586zM203 692q0 -326 55 -461t195 -135q141 0 202 144q59 139 60 491q0 338 -55.5 473t-192.5 135q-135 0 -201 -149q-63 -146 -63 -498z M252 1739q0 33 22 59q20 25 58 25q41 0 61.5 -22.5t20.5 -61.5q0 -33 -23 -60q-23 -25 -59 -24q-80 0 -80 84zM541 1739q0 33 22 59q23 25 58 25q41 0 61 -22.5t20 -61.5q0 -33 -22 -60q-20 -25 -59 -24q-80 0 -80 84z" />
<glyph unicode="&#xd7;" d="M178 795q66 61 80 59q6 0 12 -6l170 -193l172 193q18 10 29 2q25 -18 53 -45q10 -10 11 -10l-195 -220l192 -215q-49 -49 -57 -55q-10 -8 -35 2l-170 191l-168 -191q-8 -8 -16 -8q-10 0 -18.5 6t-22.5 21l-35 34l191 215z" />
<glyph unicode="&#xd8;" horiz-adv-x="948" d="M96 727q0 387 94 559q92 168 295 168q154 0 238 -90l43 109q70 -2 76 -37q0 -18 -58 -172q70 -166 70 -535q0 -410 -90 -579.5t-295 -169.5q-162 0 -244 92l-43 -105q-14 -2 -42.5 8.5t-30.5 28.5l2 7l8 22l26 67l25 62q-74 166 -74 565zM221 692q0 -297 43 -432 l379 1008q-55 72 -156 71q-138 0 -202 -147q-64 -146 -64 -500zM309 166q53 -72 156 -72q94 0 151 53q55 51 86 195q31 141 31 389q0 305 -43 440z" />
<glyph unicode="&#xd9;" horiz-adv-x="935" d="M113 440v965q0 23 14 25q20 4 100 4v-998q0 -51 4 -112q2 -35 21 -93q15 -49 43 -79q25 -27 74 -48q45 -18 114 -18q143 0 230 43v1278q0 20 14 23q20 4 100 4v-1383q-47 -31 -141 -51t-203 -20q-92 0 -168 26q-70 25 -108 64q-37 37 -60 104q-23 70 -28 123 q-6 59 -6 143zM246 1821q2 20 20 57q16 31 33 31q2 0 133 -109q117 -96 146 -131q-23 -66 -43 -65q-2 0 -140 102q-139 105 -149 115z" />
<glyph unicode="&#xda;" horiz-adv-x="935" d="M113 440v965q0 23 14 25q20 4 100 4v-998q0 -51 4 -112q2 -35 21 -93q15 -49 43 -79q25 -27 74 -48q45 -18 114 -18q143 0 230 43v1278q0 20 14 23q20 4 100 4v-1383q-47 -31 -141 -51t-203 -20q-92 0 -168 26q-70 25 -108 64q-37 37 -60 104q-23 70 -28 123 q-6 59 -6 143zM397 1659q74 74 119 113l113 94q45 35 47 35q16 0 33 -31q18 -35 20 -60q-18 -23 -111 -92l-176 -125q-8 0 -20 17q-10 12 -19 32z" />
<glyph unicode="&#xdb;" horiz-adv-x="935" d="M113 440v965q0 23 14 25q20 4 100 4v-998q0 -51 4 -112q2 -35 21 -93q15 -49 43 -79q25 -27 74 -48q45 -18 114 -18q143 0 230 43v1278q0 20 14 23q20 4 100 4v-1383q-47 -31 -141 -51t-203 -20q-92 0 -168 26q-70 25 -108 64q-37 37 -60 104q-23 70 -28 123 q-6 59 -6 143zM229 1636l228 234q16 4 26 4q25 0 41 -19q199 -199 199 -219q0 -12 -26.5 -26.5t-57.5 -14.5q-141 147 -158 177q-150 -174 -174 -175q-51 0 -78 39z" />
<glyph unicode="&#xdc;" horiz-adv-x="935" d="M113 440v965q0 23 14 25q20 4 100 4v-998q0 -51 4 -112q2 -35 21 -93q15 -49 43 -79q25 -27 74 -48q45 -18 114 -18q143 0 230 43v1278q0 20 14 23q20 4 100 4v-1383q-47 -31 -141 -51t-203 -20q-92 0 -168 26q-70 25 -108 64q-37 37 -60 104q-23 70 -28 123 q-6 59 -6 143zM258 1739q0 37 21 59q20 25 59 25q41 0 61.5 -22.5t20.5 -61.5q0 -33 -23 -60q-20 -25 -59 -24q-80 0 -80 84zM547 1739q0 33 22 59q20 25 58 25q41 0 61.5 -22.5t20.5 -61.5q0 -33 -23 -60q-23 -25 -59 -24q-80 0 -80 84z" />
<glyph unicode="&#xdd;" horiz-adv-x="737" d="M12 1415q-6 14 13 17q10 2 114 2l99 -293q43 -115 86 -262q49 -166 53 -193q14 106 139 457l90 270q2 12 21 17q20 4 102 4l-299 -848v-559q0 -18 -14 -23q-16 -4 -99 -4v582zM293 1659q74 74 119 113q94 82 110 94q45 35 49 35q18 0 33 -31q18 -35 21 -60 q-18 -23 -111 -92l-176 -125q-8 0 -21 17q-10 12 -18 32z" />
<glyph unicode="&#xde;" horiz-adv-x="755" d="M113 0v1403q0 20 14 27q10 4 61 4h35v-265h129q358 0 359 -391q0 -221 -99 -329q-98 -106 -268 -107h-121v-315q0 -20 -14 -23q-20 -4 -96 -4zM223 451h66h20h17.5t13.5 -1t9 -1h3q236 0 236 339q0 279 -226 279h-71q-12 0 -28.5 -1t-20.5 -1h-19v-614z" />
<glyph unicode="&#xdf;" horiz-adv-x="960" d="M100 2q18 39 19 109l-2 1013q0 317 321 318q199 0 299 -90q98 -90 99 -201q0 -61 -41 -113q-43 -51 -90 -75q-49 -25 -90.5 -66t-41.5 -86q0 -39 37 -82q29 -33 90 -84l107 -90q55 -53 90 -121q37 -74 37 -155q0 -143 -82 -220q-84 -78 -225 -77q-70 0 -131 16 q-57 14 -84 32.5t-27 39.5q0 41 31 77q70 -63 190 -63q94 0 150 47q57 49 57 143q0 80 -57 156q-59 78 -123 125q-72 51 -123 115q-57 70 -57 135q0 61 41 113q39 47 92 77q51 29 90 68q41 41 41 88q0 72 -69.5 129t-201.5 57q-113 0 -165 -65q-51 -63 -52 -213l2 -1002 q0 -37 -14 -57q-12 -18 -51 -18q-18 0 -35 6q-20 8 -22 10z" />
<glyph unicode="&#xe0;" horiz-adv-x="749" d="M74 285q0 104 24 174q23 68 72 102q45 33 94 45t115 12q109 0 168 -24v180q0 92 -41 127t-121 35q-184 0 -295 -51q-16 33 -16 65q0 29 16 41q35 23 125 37q98 16 197 16q125 0 186 -57q59 -55 59 -190v-123q0 -324 -10 -621q-119 -74 -278 -73q-39 0 -88 4 q-31 2 -78 22.5t-68 48.5q-27 35 -43 90q-18 60 -18 140zM143 1411q2 27 19 57q14 31 35 31q4 0 135 -108q123 -102 143 -131q-23 -66 -43 -66q-2 0 -139 102q-140 105 -150 115zM190 289q0 -72 15 -115q16 -47 45 -65q31 -18 59 -25q27 -6 76 -6q104 0 152 45 q10 160 10 387q-53 20 -133 20q-104 0 -164 -47t-60 -194z" />
<glyph unicode="&#xe1;" horiz-adv-x="749" d="M74 285q0 104 24 174q23 68 72 102q45 33 94 45t115 12q109 0 168 -24v180q0 92 -41 127t-121 35q-184 0 -295 -51q-16 33 -16 65q0 29 16 41q35 23 125 37q98 16 197 16q125 0 186 -57q59 -55 59 -190v-123q0 -324 -10 -621q-119 -74 -278 -73q-39 0 -88 4 q-31 2 -78 22.5t-68 48.5q-27 35 -43 90q-18 60 -18 140zM190 289q0 -72 15 -115q16 -47 45 -65q31 -18 59 -25q27 -6 76 -6q104 0 152 45q10 160 10 387q-53 20 -133 20q-104 0 -164 -47t-60 -194zM297 1249q74 74 119 113q94 82 110 94q45 35 49 35q16 0 33 -33 q18 -35 21 -57q-14 -18 -111 -90q-102 -78 -176 -127q-10 0 -23 16q-6 8 -16 33z" />
<glyph unicode="&#xe2;" horiz-adv-x="749" d="M74 285q0 104 24 174q23 68 72 102q45 33 94 45t115 12q109 0 168 -24v180q0 92 -41 127t-121 35q-184 0 -295 -51q-16 33 -16 65q0 29 16 41q35 23 125 37q98 16 197 16q125 0 186 -57q59 -55 59 -190v-123q0 -324 -10 -621q-119 -74 -278 -73q-39 0 -88 4 q-31 2 -78 22.5t-68 48.5q-27 35 -43 90q-18 60 -18 140zM129 1227l227 233q16 4 27 4q27 0 41 -18q199 -199 199 -219q0 -12 -27 -26.5t-57 -14.5q-137 143 -158 176q-150 -174 -174 -174q-51 0 -78 39zM190 289q0 -72 15 -115q16 -47 45 -65q31 -18 59 -25q27 -6 76 -6 q104 0 152 45q10 160 10 387q-53 20 -133 20q-104 0 -164 -47t-60 -194z" />
<glyph unicode="&#xe3;" horiz-adv-x="749" d="M74 285q0 104 24 174q23 68 72 102q45 33 94 45t115 12q109 0 168 -24v180q0 92 -41 127t-121 35q-184 0 -295 -51q-16 33 -16 65q0 29 16 41q35 23 125 37q98 16 197 16q125 0 186 -57q59 -55 59 -190v-123q0 -324 -10 -621q-119 -74 -278 -73q-39 0 -88 4 q-31 2 -78 22.5t-68 48.5q-27 35 -43 90q-18 60 -18 140zM86 1278q84 139 209 139q45 0 94 -51q49 -53 92 -53q45 0 76 24.5t45 44.5q16 23 23 23q10 0 22 -16q10 -12 19 -33l4 -17q-14 -33 -33 -53q-20 -25 -70 -53q-47 -29 -100 -29q-66 0 -115 56q-47 53 -78 53 q-37 0 -61 -23q-27 -23 -43 -47q-16 -23 -25 -22q-32 0 -59 57zM190 289q0 -72 15 -115q16 -47 45 -65q31 -18 59 -25q27 -6 76 -6q104 0 152 45q10 160 10 387q-53 20 -133 20q-104 0 -164 -47t-60 -194z" />
<glyph unicode="&#xe4;" horiz-adv-x="749" d="M74 285q0 104 24 174q23 68 72 102q45 33 94 45t115 12q109 0 168 -24v180q0 92 -41 127t-121 35q-184 0 -295 -51q-16 33 -16 65q0 29 16 41q35 23 125 37q98 16 197 16q125 0 186 -57q59 -55 59 -190v-123q0 -324 -10 -621q-119 -74 -278 -73q-39 0 -88 4 q-31 2 -78 22.5t-68 48.5q-27 35 -43 90q-18 60 -18 140zM158 1329q0 33 22 60q20 25 58 24q40 0 61 -24q20 -23 20 -60q0 -35 -22 -61q-20 -23 -59 -23q-80 0 -80 84zM190 289q0 -72 15 -115q16 -47 45 -65q31 -18 59 -25q27 -6 76 -6q104 0 152 45q10 160 10 387 q-53 20 -133 20q-104 0 -164 -47t-60 -194zM446 1329q0 37 21 60q20 25 59 24.5t60 -24.5q23 -27 22 -60q0 -35 -22 -61q-20 -23 -60 -23q-80 0 -80 84z" />
<glyph unicode="&#xe5;" horiz-adv-x="749" d="M74 285q0 104 24 174q23 68 72 102q45 33 94 45t115 12q109 0 168 -24v180q0 92 -41 127t-121 35q-184 0 -295 -51q-16 33 -16 65q0 29 16 41q35 23 125 37q98 16 197 16q125 0 186 -57q59 -55 59 -190v-123q0 -324 -10 -621q-119 -74 -278 -73q-39 0 -88 4 q-31 2 -78 22.5t-68 48.5q-27 35 -43 90q-18 60 -18 140zM190 289q0 -72 15 -115q16 -47 45 -65q31 -18 59 -25q27 -6 76 -6q104 0 152 45q10 160 10 387q-53 20 -133 20q-104 0 -164 -47t-60 -194zM195 1360q0 186 192 186q88 0 133 -41q43 -39 43 -143q0 -186 -190 -186 q-86 0 -133 43q-45 43 -45 141zM283 1356q0 -98 92 -99q102 0 102 105q0 100 -90 100q-53 0 -78 -24q-26 -27 -26 -82z" />
<glyph unicode="&#xe6;" horiz-adv-x="1267" d="M74 291q0 197 84 270q80 72 219 72q111 0 170 -25v172q0 94 -45 127q-47 35 -129 35q-170 0 -277 -59q-14 23 -14 67q0 29 18 39q86 55 312 55q96 0 155 -38q51 -35 68 -123q46 95 117 129q68 33 168 32q258 0 258 -317q0 -162 -21 -252q-86 -14 -190 -14q-156 0 -299 31 v-35q0 -125 14 -197q14 -74 49 -110.5t72 -47.5q41 -10 96 -10q154 0 254 70q14 -31 14 -103q0 -12 -37 -30q-25 -12 -104 -31q-63 -14 -137 -14q-182 0 -246 94v-35q-104 -61 -274 -61q-72 0 -111 8q-49 10 -90 35q-45 27 -69.5 94.5t-24.5 171.5zM190 289 q0 -133 47.5 -172t145.5 -39q121 0 164 43v403q-53 20 -133 21q-100 0 -164 -53q-60 -51 -60 -203zM672 586q152 -33 280 -33q68 0 107 8q8 57 8 144q-4 127 -37 182q-35 55 -121 55q-94 0 -157 -72q-66 -73 -80 -284z" />
<glyph unicode="&#xe7;" horiz-adv-x="675" d="M82 489q0 141 24 246q25 106 58 162q34 58 86 92q57 37 96 45q51 10 105 10q74 0 123 -24.5t49 -56.5q0 -37 -15 -68q-70 47 -159 47q-43 0 -70 -8q-31 -9 -68 -37q-33 -25 -59 -74q-23 -41 -39 -135q-16 -92 -16 -205q0 -237 55 -319t168 -82q121 0 188 61 q14 -31 15 -65q0 -34 -56 -62q-57 -29 -143 -34l-21 -105q4 4 37 4q41 0 72 -31q29 -29 29 -88q0 -78 -43 -118q-41 -39 -105 -39q-61 0 -108 20q10 53 20 68q9 3 19 0l12 -5q12 -5 20 -7q20 -6 39 -7q70 0 70 74q0 72 -68 72l-80 -13l33 175q-135 8 -200 114 q-68 107 -68 393z" />
<glyph unicode="&#xe8;" horiz-adv-x="768" d="M78 457q0 145 22 262q22 111 56 172q33 57 86 96t98 47q51 10 104 10q258 0 258 -323q0 -156 -20 -246q-182 -37 -489 -37q0 -137 32 -223q31 -78 78 -102q45 -23 129 -23q150 0 246 70q14 -35 14 -80q0 -37 -84 -68q-88 -33 -194 -32q-80 0 -135 18q-57 18 -104.5 65.5 t-72 145.5t-24.5 248zM193 1411q2 20 20 57q16 31 33 31q4 0 135 -108q123 -102 143 -131q-23 -66 -43 -66q-2 0 -139 102q-139 105 -149 115zM195 532q270 0 389 29q8 57 8 137q-2 127 -37 187q-33 57 -121 57q-49 0 -80 -14q-39 -18 -71 -54q-35 -37 -60 -124 q-26 -91 -28 -218z" />
<glyph unicode="&#xe9;" horiz-adv-x="768" d="M78 457q0 145 22 262q22 111 56 172q33 57 86 96t98 47q51 10 104 10q258 0 258 -323q0 -156 -20 -246q-182 -37 -489 -37q0 -137 32 -223q31 -78 78 -102q45 -23 129 -23q150 0 246 70q14 -35 14 -80q0 -37 -84 -68q-88 -33 -194 -32q-80 0 -135 18q-57 18 -104.5 65.5 t-72 145.5t-24.5 248zM195 532q270 0 389 29q8 57 8 137q-2 127 -37 187q-33 57 -121 57q-49 0 -80 -14q-39 -18 -71 -54q-35 -37 -60 -124q-26 -91 -28 -218zM346 1249q74 74 119 113q94 82 110 94q45 35 50 35q18 0 34 -33q14 -31 19 -57q-14 -18 -111 -90 q-102 -78 -176 -127q-10 0 -22 16q-6 8 -17 33z" />
<glyph unicode="&#xea;" horiz-adv-x="768" d="M78 457q0 145 22 262q22 111 56 172q33 57 86 96t98 47q51 10 104 10q258 0 258 -323q0 -156 -20 -246q-182 -37 -489 -37q0 -137 32 -223q31 -78 78 -102q45 -23 129 -23q150 0 246 70q14 -35 14 -80q0 -37 -84 -68q-88 -33 -194 -32q-80 0 -135 18q-57 18 -104.5 65.5 t-72 145.5t-24.5 248zM178 1227l228 233q16 4 26 4q27 0 41 -18q199 -199 199 -219q0 -12 -27 -26.5t-57 -14.5q-137 143 -158 176q-150 -174 -174 -174q-51 0 -78 39zM195 532q270 0 389 29q8 57 8 137q-2 127 -37 187q-33 57 -121 57q-49 0 -80 -14q-39 -18 -71 -54 q-35 -37 -60 -124q-26 -91 -28 -218z" />
<glyph unicode="&#xeb;" horiz-adv-x="768" d="M78 457q0 145 22 262q22 111 56 172q33 57 86 96t98 47q51 10 104 10q258 0 258 -323q0 -156 -20 -246q-182 -37 -489 -37q0 -137 32 -223q31 -78 78 -102q45 -23 129 -23q150 0 246 70q14 -35 14 -80q0 -37 -84 -68q-88 -33 -194 -32q-80 0 -135 18q-57 18 -104.5 65.5 t-72 145.5t-24.5 248zM195 532q270 0 389 29q8 57 8 137q-2 127 -37 187q-33 57 -121 57q-49 0 -80 -14q-39 -18 -71 -54q-35 -37 -60 -124q-26 -91 -28 -218zM207 1329q0 33 22 60q20 25 58 24q40 0 61 -24q20 -23 21 -60q0 -35 -23 -61q-20 -23 -59 -23q-80 0 -80 84z M496 1329q0 33 22 60q23 25 57 24q39 0 60 -24q23 -27 22 -60q0 -35 -22 -61q-20 -23 -60 -23q-79 0 -79 84z" />
<glyph unicode="&#xec;" horiz-adv-x="348" d="M-59 1411q2 27 18 57.5t35 30.5q2 0 133 -108q127 -106 145 -131q-23 -66 -43 -66q-4 0 -141 102q-131 99 -147 115zM117 0v969q0 39 20 47q18 8 96 8v-997q0 -18 -16 -23q-20 -4 -100 -4z" />
<glyph unicode="&#xed;" horiz-adv-x="348" d="M92 1249q74 74 119 113l113 94q45 35 47 35q18 0 35 -33q14 -31 18 -57q-14 -18 -111 -90q-102 -78 -176 -127q-10 0 -22 16q-6 8 -17 33zM117 0v969q0 39 20 47q18 8 96 8v-997q0 -18 -16 -23q-20 -4 -100 -4z" />
<glyph unicode="&#xee;" horiz-adv-x="348" d="M-76 1227l228 233q16 4 26 4q27 0 41 -18q199 -199 199 -219q0 -12 -26.5 -26.5t-57.5 -14.5q-137 143 -158 176q-150 -174 -174 -174q-51 0 -78 39zM117 0v969q0 39 20 47q18 8 96 8v-997q0 -18 -16 -23q-20 -4 -100 -4z" />
<glyph unicode="&#xef;" horiz-adv-x="348" d="M-47 1329q0 33 22 60q20 25 58 24q40 0 61 -24q20 -23 21 -60q0 -35 -23 -61q-20 -23 -59 -23q-80 0 -80 84zM117 0v969q0 39 20 47q18 8 96 8v-997q0 -18 -16 -23q-20 -4 -100 -4zM242 1329q0 33 22 60q23 25 58 24q40 0 61 -24q20 -23 20 -60q0 -35 -22 -61 q-20 -23 -59 -23q-80 0 -80 84z" />
<glyph unicode="&#xf0;" horiz-adv-x="892" d="M94 526q0 252 92 383q92 133 258 133q139 0 226 -92q-47 186 -158 328l-197 -78q-31 84 -20 96q2 4 10 9l135 53q-46 46 -129 110q29 55 78 56q27 0 47 -21q78 -63 113 -102l158 63q31 -84 22 -96q-2 -4 -12 -8l-99 -39q201 -268 201 -729q0 -135 -12 -234 q-12 -90 -51 -190q-35 -90 -111 -139q-74 -49 -182 -49q-188 0 -279 129q-90 130 -90 417zM207 510q0 -432 254 -432q78 0 131 41q47 37 74 121q23 74 32 159q8 72 9 199q0 111 -11 197q-86 143 -227 143q-127 0 -194.5 -112.5t-67.5 -315.5z" />
<glyph unicode="&#xf1;" horiz-adv-x="819" d="M113 0v973q168 72 331 71q158 0 220 -65q61 -65 61 -215v-737q0 -20 -14 -23q-20 -4 -101 -4v733q0 117 -34.5 164t-135.5 47q-125 0 -215 -47v-870q0 -20 -14 -23q-20 -4 -98 -4zM141 1278q84 139 209 139q47 0 96 -51q49 -53 91 -53q47 0 77 24q25 20 43 45 q16 23 23 23q12 0 25 -16q6 -8 16 -33l4 -17q-14 -33 -33 -53q-20 -25 -69 -53q-47 -29 -101 -29q-66 0 -114 56q-47 53 -78 53q-37 0 -62 -23q-27 -23 -43 -47q-16 -23 -24 -22q-33 0 -60 57z" />
<glyph unicode="&#xf2;" horiz-adv-x="782" d="M63 510q0 535 343 534q164 0 241 -114q76 -113 76 -418q0 -532 -340 -532q-83 0 -135 18q-55 18 -98 72q-43 51 -66 163q-21 103 -21 277zM168 1411q2 20 20 57q16 31 33 31q2 0 133 -108q117 -96 146 -131q-23 -66 -43 -66q-2 0 -140 102q-139 105 -149 115zM184 502 q0 -164 27 -266q25 -96 65 -127t111 -31q215 0 215 438q0 254 -47 340q-49 88 -154 88q-106 0 -161.5 -98t-55.5 -344z" />
<glyph unicode="&#xf3;" horiz-adv-x="782" d="M63 510q0 535 343 534q164 0 241 -114q76 -113 76 -418q0 -532 -340 -532q-83 0 -135 18q-55 18 -98 72q-43 51 -66 163q-21 103 -21 277zM184 502q0 -164 27 -266q25 -96 65 -127t111 -31q215 0 215 438q0 254 -47 340q-49 88 -154 88q-106 0 -161.5 -98t-55.5 -344z M319 1249q74 74 119 113l113 94q45 35 47 35q16 0 33 -33q18 -35 20 -57q-14 -18 -110 -90q-102 -78 -176 -127q-8 0 -21 16q-10 12 -18 33z" />
<glyph unicode="&#xf4;" horiz-adv-x="782" d="M63 510q0 535 343 534q164 0 241 -114q76 -113 76 -418q0 -532 -340 -532q-83 0 -135 18q-55 18 -98 72q-43 51 -66 163q-21 103 -21 277zM152 1227l227 233q16 4 27 4q25 0 40 -18q199 -199 199 -219q0 -12 -26.5 -26.5t-57.5 -14.5q-137 143 -158 176 q-150 -174 -174 -174q-50 0 -77 39zM184 502q0 -164 27 -266q25 -96 65 -127t111 -31q215 0 215 438q0 254 -47 340q-49 88 -154 88q-106 0 -161.5 -98t-55.5 -344z" />
<glyph unicode="&#xf5;" horiz-adv-x="782" d="M63 510q0 535 343 534q164 0 241 -114q76 -113 76 -418q0 -532 -340 -532q-83 0 -135 18q-55 18 -98 72q-43 51 -66 163q-21 103 -21 277zM109 1278q84 139 208 139q45 0 95 -51q49 -53 92 -53q45 0 75.5 24.5t45.5 44.5q16 23 22 23q10 0 23 -16q6 -8 16 -33l6 -17 q-14 -33 -33 -53q-20 -25 -69 -53q-47 -29 -101 -29q-68 0 -114 56q-45 53 -78 53q-37 0 -61 -23q-27 -23 -43 -47q-16 -23 -25 -22q-32 0 -59 57zM184 502q0 -164 27 -266q25 -96 65 -127t111 -31q215 0 215 438q0 254 -47 340q-49 88 -154 88q-106 0 -161.5 -98 t-55.5 -344z" />
<glyph unicode="&#xf6;" horiz-adv-x="782" d="M63 510q0 535 343 534q164 0 241 -114q76 -113 76 -418q0 -532 -340 -532q-83 0 -135 18q-55 18 -98 72q-43 51 -66 163q-21 103 -21 277zM180 1329q0 37 21 60q20 25 59 24.5t59 -24.5q23 -27 23 -60q0 -35 -23 -61q-20 -23 -59 -23q-80 0 -80 84zM184 502 q0 -164 27 -266q25 -96 65 -127t111 -31q215 0 215 438q0 254 -47 340q-49 88 -154 88q-106 0 -161.5 -98t-55.5 -344zM469 1329q0 33 23 60q20 25 57 24q40 0 61 -24q20 -23 21 -60q0 -35 -23 -61q-20 -23 -59 -23q-80 0 -80 84z" />
<glyph unicode="&#xf7;" d="M86 526v49q0 20 2 31q4 16 8 19q8 4 17 4h690q0 -53 -4 -82q-2 -20 -25 -21h-688zM358 287q0 39 21 61q23 25 59 25q82 0 82 -86q0 -33 -22 -60q-23 -25 -60 -24q-80 0 -80 84zM358 856q0 37 21 59q23 25 59 25q82 0 82 -84q0 -35 -22 -61q-23 -25 -60 -25q-80 0 -80 86z " />
<glyph unicode="&#xf8;" horiz-adv-x="866" d="M57 4q0 10 95 166q-37 117 -37 340q0 535 338 534q158 0 227 -94q59 104 74 119q68 -15 67 -49q0 -16 -92 -164q43 -123 43 -344q0 -532 -330 -532q-178 0 -245 98l-32 -52.5t-27 -46t-15 -24.5q-12 2 -41 16q-25 13 -25 33zM233 502q0 -147 17 -232l348 592 q-43 82 -147 82q-106 0 -162 -98t-56 -344zM279 174q47 -96 157 -96q215 0 215 438q0 156 -20 252z" />
<glyph unicode="&#xf9;" horiz-adv-x="849" d="M119 346v649q0 25 14 27q10 2 100 2v-692q0 -147 39 -199q41 -53 158 -53q111 0 188 47v868q0 23 15 25q20 4 98 4v-973q-139 -72 -311 -71.5t-238 83.5q-63 82 -63 283zM197 1411q2 27 18 57q14 31 35 31q4 0 135 -108q123 -102 143 -131q-23 -66 -43 -66q-4 0 -141 102 q-131 99 -147 115z" />
<glyph unicode="&#xfa;" horiz-adv-x="849" d="M119 346v649q0 25 14 27q10 2 100 2v-692q0 -147 39 -199q41 -53 158 -53q111 0 188 47v868q0 23 15 25q20 4 98 4v-973q-139 -72 -311 -71.5t-238 83.5q-63 82 -63 283zM348 1249q74 74 119 113l113 94q45 35 47 35q18 0 35 -33q14 -31 18 -57q-14 -18 -111 -90 q-102 -78 -176 -127q-10 0 -22 16q-6 8 -17 33z" />
<glyph unicode="&#xfb;" horiz-adv-x="849" d="M119 346v649q0 25 14 27q10 2 100 2v-692q0 -147 39 -199q41 -53 158 -53q111 0 188 47v868q0 23 15 25q20 4 98 4v-973q-139 -72 -311 -71.5t-238 83.5q-63 82 -63 283zM180 1227l228 233q16 4 26 4q25 0 41 -18q199 -199 199 -219q0 -12 -26.5 -26.5t-57.5 -14.5 q-137 143 -158 176q-150 -174 -174 -174q-51 0 -78 39z" />
<glyph unicode="&#xfc;" horiz-adv-x="849" d="M119 346v649q0 25 14 27q10 2 100 2v-692q0 -147 39 -199q41 -53 158 -53q111 0 188 47v868q0 23 15 25q20 4 98 4v-973q-139 -72 -311 -71.5t-238 83.5q-63 82 -63 283zM209 1329q0 33 22 60q23 25 58 24q40 0 61 -24q20 -23 21 -60q0 -35 -23 -61q-20 -23 -59 -23 q-80 0 -80 84zM498 1329q0 33 22 60q20 25 58 24q40 0 61 -24q20 -23 20 -60q0 -35 -22 -61q-20 -23 -59 -23q-80 0 -80 84z" />
<glyph unicode="&#xfd;" horiz-adv-x="755" d="M2 -334q0 39 21 66q61 -29 124 -29q127 0 187 264l-266 1022q-6 29 8 31q20 4 100 4l154 -602l59 -318q18 141 55 320l138 565q3 28 18 31q20 4 102 4l-270 -1087q-47 -182 -110 -256q-66 -76 -170 -76q-150 0 -150 61zM309 1249q74 74 119 113l113 94q45 35 47 35 q16 0 33 -33q18 -35 20 -57q-14 -18 -111 -90q-102 -78 -176 -127q-8 0 -20 16q-10 12 -19 33z" />
<glyph unicode="&#xfe;" horiz-adv-x="817" d="M117 -365v1815q0 37 18 47q16 8 94 8v-489q78 27 183 26q168 0 254 -98q84 -96 84 -342q0 -158 -25 -274q-25 -115 -61 -181q-35 -61 -89 -104q-43 -35 -90 -49q-39 -12 -82 -12q-117 0 -174 63v-446q-23 -8 -65 -9q-29 0 -37 9q-10 9 -10 36zM229 158q47 -78 144 -78 q29 0 59 10q29 10 66 43q41 37 65.5 84t44.5 150q18 96 19 223q0 203 -54 278q-53 74 -163 74q-102 0 -181 -53v-731z" />
<glyph unicode="&#xff;" horiz-adv-x="755" d="M2 -334q0 39 21 66q61 -29 124 -29q127 0 187 264l-266 1022q-6 29 8 31q20 4 100 4l154 -602l59 -318q18 141 55 320l138 565q3 28 18 31q20 4 102 4l-270 -1087q-47 -182 -110 -256q-66 -76 -170 -76q-150 0 -150 61zM170 1329q0 33 23 60q20 25 57 24q40 0 61 -24 q20 -23 21 -60q0 -35 -23 -61q-20 -23 -59 -23q-80 0 -80 84zM459 1329q0 33 22 60q23 25 58 24q40 0 61 -24q20 -23 21 -60q0 -35 -23 -61q-20 -23 -59 -23q-80 0 -80 84z" />
<glyph unicode="&#x131;" horiz-adv-x="348" d="M117 0v969q0 39 20 47q18 8 96 8v-997q0 -18 -16 -23q-20 -4 -100 -4z" />
<glyph unicode="&#x141;" horiz-adv-x="671" d="M12 721q0 20 17 31l84 26v615q0 31 14 37q10 4 100 4v-617l209 68q18 -57 18.5 -78t-16.5 -29l-211 -69v-603h406v-79q0 -27 -29 -27h-491v670l-84 -27q-17 66 -17 78z" />
<glyph unicode="&#x142;" horiz-adv-x="346" d="M-2 694q0 18 2 22.5t14 8.5l103 33v692q0 37 18 47q16 8 94 8v-708l105 34l12 -47q4 -20 4 -30q0 -16 -2 -20.5t-14 -8.5l-105 -35v-663q0 -18 -14 -23q-16 -4 -98 -4v651l-103 -33q-4 16 -7 26.5t-5 19.5q-4 20 -4 30z" />
<glyph unicode="&#x152;" horiz-adv-x="1282" d="M74 725q0 391 94 559q96 170 295 170q178 0 262 -133v84q0 29 27 29h477q0 -78 -2 -88q-4 -16 -21 -17h-383v-493h359q0 -76 -2 -88q-2 -16 -23 -17h-334v-627h404q0 -80 -2 -90q-2 -14 -25 -14h-475v133q-84 -152 -279 -151q-201 0 -288 161q-84 156 -84 582zM199 692 q0 -322 57 -465q55 -137 193 -137q139 0 194 145.5t55 495.5q0 338 -51 479q-49 135 -182 136q-137 0 -203 -152q-63 -148 -63 -502z" />
<glyph unicode="&#x153;" horiz-adv-x="1314" d="M76 510q0 535 340 534q203 0 270 -170q47 102 125 138q72 33 176 32q258 0 258 -317q0 -162 -20 -252q-180 -37 -490 -37q0 -111 17 -188q14 -68 51 -104.5t69 -45.5q41 -10 95 -10q158 0 254 70q14 -35 14 -105q0 -12 -37 -30q-27 -12 -104 -31q-63 -14 -138 -14 q-113 0 -180 32q-70 33 -108 127q-82 -160 -262 -159q-86 0 -141.5 18t-100.5 72q-45 55 -68 163q-20 103 -20 277zM197 502q0 -164 26 -266q25 -96 66 -127q39 -31 110 -31q215 0 215 438q0 252 -49 338q-51 88 -151 88q-106 0 -161.5 -98t-55.5 -342zM735 532 q272 0 391 29q8 57 9 144q-4 133 -35 184q-33 53 -123 53q-46 0 -80 -12q-39 -14 -74 -51q-37 -41 -61 -125q-23 -83 -27 -222z" />
<glyph unicode="&#x160;" horiz-adv-x="753" d="M68 88q0 43 32 80q76 -74 230 -74q246 0 245 250q0 80 -32 156q-31 70 -111 155l-221 232q-139 158 -139 291q0 125 92 200q90 76 252 76q131 0 192 -27q66 -29 66 -63q0 -37 -31 -68q-74 55 -219 56q-104 0 -170 -47q-63 -45 -64 -125q0 -94 113 -222l244 -251 q86 -92 115 -168q33 -86 32 -185q0 -170 -86 -272t-270 -102q-125 0 -199 34q-71 35 -71 74zM166 1829q14 33 27 47q18 23 30.5 22.5t61.5 -49.5q63 -63 92 -96l43 -47l80 96q57 66 67 76l27 25q47 -29 47 -56q0 -23 -102 -137q-100 -113 -121 -113t-127 103 q-100 98 -125 129z" />
<glyph unicode="&#x161;" horiz-adv-x="751" d="M80 68q0 35 24 69q90 -53 224 -53q221 0 221 158q0 113 -115 198l-215 156q-82 57 -108.5 104.5t-26.5 110.5q0 109 88 170q92 63 246 63q80 0 151 -20q63 -18 86 -40.5t23 -41.5q0 -35 -27 -63q-102 66 -223 65q-96 0 -155.5 -35t-59.5 -98q0 -76 100 -143l222 -158 q139 -115 139 -254q0 -135 -88 -205q-90 -72 -248 -71q-113 0 -188 26q-70 25 -70 62zM170 1419q14 33 25 47q16 23 32 23q14 0 62 -47q63 -63 92 -96l43 -50l80 97q43 49 67 73l27 27q47 -29 47 -55q0 -23 -102 -138q-100 -113 -121 -112.5t-127 102.5q-80 78 -125 129z " />
<glyph unicode="&#x178;" horiz-adv-x="737" d="M12 1415q-6 14 13 17q10 2 114 2l99 -293q43 -115 86 -262q49 -166 53 -193q14 106 139 457l90 270q2 12 21 17q20 4 102 4l-299 -848v-559q0 -18 -14 -23q-16 -4 -99 -4v582zM156 1739q0 33 22 59q23 25 58 25q41 0 61 -22.5t20 -61.5q0 -33 -22 -60q-20 -25 -59 -24 q-80 0 -80 84zM444 1739q0 37 21 59q23 25 59 25q39 0 60 -23q23 -27 22 -61q0 -33 -22 -60q-23 -25 -60 -24q-80 0 -80 84z" />
<glyph unicode="&#x17d;" horiz-adv-x="802" d="M47 45q0 29 10 55l564 1231h-435q-55 0 -84 -4v78q0 29 29 29h610q12 -16 13 -39q0 -27 -13 -58l-569 -1235h461q78 0 108 13v-88q0 -27 -26 -27h-649q-19 16 -19 45zM195 1829q14 33 26 47q18 23 30.5 22.5t61.5 -49.5q63 -63 93 -96l43 -47l79 96q43 49 70 76l25 25 q47 -29 47 -56q0 -25 -100.5 -137.5t-123.5 -112.5q-20 0 -127 103q-99 98 -124 129z" />
<glyph unicode="&#x17e;" horiz-adv-x="743" d="M59 57q0 25 13 45l481 824h-248q-166 0 -231 -11q-4 37 -4 56q0 53 36 53h566q12 -12 12 -37q0 -33 -14 -59l-477 -822h237q184 0 248 17q2 -8 2 -53q0 -70 -43 -70h-557q-21 18 -21 57zM139 1419q14 33 25 47q16 23 33 23q14 0 61 -47q63 -63 92 -96l43 -50l80 97 q29 33 70 73l24 27q47 -29 47 -55q0 -23 -102 -138q-100 -113 -121 -112q-18 0 -125 102q-94 90 -127 129z" />
<glyph unicode="&#x17f;" horiz-adv-x="354" d="M106 2q14 43 15 119v1081q0 166 86 238q88 72 252 71q98 0 167.5 -30.5t69.5 -59.5q0 -43 -28 -78q-86 68 -211 68q-119 0 -172 -57q-51 -53 -52 -195v-1122q0 -33 -14 -43t-51 -10q-44 0 -62 18z" />
<glyph unicode="&#x192;" horiz-adv-x="974" d="M33 -338q0 35 14 66q63 -25 152 -25q53 0 84 6q35 6 71 27q39 20 58 74q20 57 20 133v979h-278v49q0 10 4 30q4 16 8 19q8 4 14 4h252v139q0 98 21 162q20 68 53 102.5t80 53.5q59 23 88 24q49 4 92 4q86 0 131 -18t45 -45q0 -33 -12 -64q-68 25 -152 25q-52 0 -86 -6 q-33 -6 -71.5 -26.5t-57.5 -74.5q-18 -52 -18 -135v-141h325q0 -59 -4 -84q-3 -18 -24 -18h-297v-975q0 -100 -21 -164q-20 -68 -53 -102.5t-80 -53.5q-59 -23 -88 -24q-49 -4 -92 -4q-80 0 -131 20q-47 18 -47 43z" />
<glyph unicode="&#x237;" horiz-adv-x="370" d="M-231 -305q0 39 18 63q90 -53 197 -53q94 0 120 55q27 53 27 187v1022q0 39 19 47q16 8 94 8v-1100q0 -156 -53.5 -239.5t-198.5 -83.5q-102 0 -164 28q-59 29 -59 66z" />
<glyph unicode="&#x2c6;" horiz-adv-x="491" d="M0 1227l227 233q16 4 27 4q25 0 41 -18q199 -199 199 -219q0 -12 -27 -26.5t-57 -14.5q-137 143 -158 176q-150 -174 -174 -174q-51 0 -78 39z" />
<glyph unicode="&#x2c7;" horiz-adv-x="473" d="M0 1419q14 33 25 47q16 23 32 23q14 0 62 -47q63 -63 92 -96l43 -50l80 97q43 49 67 73l27 27q47 -29 47 -55q0 -23 -102 -138q-100 -113 -121 -112.5t-127 102.5q-80 78 -125 129z" />
<glyph unicode="&#x2d8;" horiz-adv-x="497" d="M0 1413q0 43 63 62q63 -178 183 -179q49 0 84 27t51 55q2 4 35 74q18 31 49 12q33 -18 35 -51q-72 -225 -256 -225q-102 0 -172 82q-72 84 -72 143z" />
<glyph unicode="&#x2d9;" horiz-adv-x="131" d="M2 1370q0 94 68 94q63 0 63 -92q-4 -96 -70 -96q-63 0 -61 94z" />
<glyph unicode="&#x2da;" horiz-adv-x="366" d="M0 1360q0 186 193 186q90 0 135 -41q41 -39 41 -143q0 -186 -191 -186q-88 0 -133 43t-45 141zM88 1356q0 -98 92 -99q102 0 103 105q0 100 -90 100q-53 0 -78 -24q-27 -27 -27 -82z" />
<glyph unicode="&#x2db;" horiz-adv-x="260" d="M0 -233q0 90 57 167q55 76 127 99q20 12 39 8q27 -6 37 -41q-63 -35 -110.5 -96.5t-47.5 -124.5q0 -90 82 -90q29 0 62 16q12 -25 14 -41q0 -20 -2 -24q-8 -39 -100 -39q-158 0 -158 166z" />
<glyph unicode="&#x2dc;" horiz-adv-x="581" d="M0 1278q84 139 209 139q45 0 94 -51q49 -53 92 -53q45 0 76 24.5t45 44.5q16 23 23 23q10 0 22 -16q10 -12 19 -33l4 -17q-14 -33 -33 -53q-20 -25 -70 -53q-47 -29 -100 -29q-66 0 -115 56q-47 53 -78 53q-37 0 -61 -23q-27 -23 -43 -47q-16 -23 -25 -22q-32 0 -59 57z " />
<glyph unicode="&#x2dd;" horiz-adv-x="604" d="M106 1212l205 304q12 23 41 22q12 0 25 -6q12 12 33 12q28 0 49 -18.5t24 -48.5l-229 -297q-10 -16 -31 -17q-18 0 -33 13l-2 -5q-10 -10 -26 -10q-20 0 -37 15q-15 11 -19 36z" />
<glyph unicode="&#x394;" horiz-adv-x="899" d="M57 0l328 1366q16 74 82 74q39 0 55 -15l338 -1425h-803zM188 106h545l-270 1164h-6z" />
<glyph unicode="&#x2206;" horiz-adv-x="899" d="M57 0l328 1366q16 74 82 74q39 0 55 -15l338 -1425h-803zM188 106h545l-270 1164h-6z" />
<glyph unicode="&#x3a9;" horiz-adv-x="942" d="M94 49q0 57 39 57h133q-168 248 -168 666q0 356 95 518q96 164 301 164q193 0 272 -154q78 -150 78 -520q0 -240 -56 -415q-55 -178 -118 -259h168q10 -35 10 -51q0 -55 -43 -55h-273q80 121 140 315q59 197 59 410q0 334 -59 475q-57 137 -191 137q-137 0 -202 -133 q-66 -135 -66 -461q0 -223 57.5 -427.5t132.5 -315.5h-301q-8 22 -8 49z" />
<glyph unicode="&#x2126;" horiz-adv-x="942" d="M94 49q0 57 39 57h133q-168 248 -168 666q0 356 95 518q96 164 301 164q193 0 272 -154q78 -150 78 -520q0 -240 -56 -415q-55 -178 -118 -259h168q10 -35 10 -51q0 -55 -43 -55h-273q80 121 140 315q59 197 59 410q0 334 -59 475q-57 137 -191 137q-137 0 -202 -133 q-66 -135 -66 -461q0 -223 57.5 -427.5t132.5 -315.5h-301q-8 22 -8 49z" />
<glyph unicode="&#x3c0;" horiz-adv-x="903" d="M70 963q0 61 41 61h710q10 -27 10 -53q0 -55 -43 -56h-81v-882q0 -41 -60 -41q-31 0 -53 8v915h-295v-882q0 -41 -59 -41q-23 0 -54 8v915h-106q-10 25 -10 48z" />
<glyph unicode="&#x2000;" horiz-adv-x="976" />
<glyph unicode="&#x2001;" horiz-adv-x="1955" />
<glyph unicode="&#x2002;" horiz-adv-x="976" />
<glyph unicode="&#x2003;" horiz-adv-x="1955" />
<glyph unicode="&#x2004;" horiz-adv-x="651" />
<glyph unicode="&#x2005;" horiz-adv-x="487" />
<glyph unicode="&#x2006;" horiz-adv-x="325" />
<glyph unicode="&#x2007;" horiz-adv-x="325" />
<glyph unicode="&#x2008;" horiz-adv-x="243" />
<glyph unicode="&#x2009;" horiz-adv-x="389" />
<glyph unicode="&#x200a;" horiz-adv-x="106" />
<glyph unicode="&#x2010;" horiz-adv-x="591" d="M88 526v49q0 20 2 31q4 16 8 19q8 4 17 4h391q0 -53 -4 -82q-2 -20 -25 -21h-389z" />
<glyph unicode="&#x2011;" horiz-adv-x="591" d="M88 526v49q0 20 2 31q4 16 8 19q8 4 17 4h391q0 -53 -4 -82q-2 -20 -25 -21h-389z" />
<glyph unicode="&#x2012;" horiz-adv-x="591" d="M88 526v49q0 20 2 31q4 16 8 19q8 4 17 4h391q0 -53 -4 -82q-2 -20 -25 -21h-389z" />
<glyph unicode="&#x2013;" horiz-adv-x="890" d="M88 526v49q0 20 2 31q4 16 8 19q8 4 17 4h690q0 -53 -4 -82q-2 -20 -25 -21h-688z" />
<glyph unicode="&#x2014;" horiz-adv-x="1431" d="M12 526v49q0 20 2 31q4 16 9 19q8 4 16 4h1382q0 -53 -4 -82q-2 -20 -24 -21h-1381z" />
<glyph unicode="&#x2018;" horiz-adv-x="323" d="M76 1284q0 90 49 213t76 123q41 0 47 -37q-45 -88 -47 -231q41 -25 41 -82q0 -33 -23 -60q-23 -25 -57 -24q-86 0 -86 98z" />
<glyph unicode="&#x2019;" horiz-adv-x="323" d="M78 1212q45 92 47 232q-41 25 -41 82q0 35 22 61q20 23 60 23q84 0 84 -99q0 -90 -49 -212.5t-76 -122.5q-39 -1 -47 36z" />
<glyph unicode="&#x201a;" horiz-adv-x="319" d="M78 -193q45 92 47 232q-41 25 -41 82q0 35 22 61q20 23 60 23q84 0 84 -99q0 -90 -49 -212.5t-76 -122.5q-39 -1 -47 36z" />
<glyph unicode="&#x201c;" horiz-adv-x="608" d="M76 1284q0 90 49 213t76 123q41 0 47 -37q-45 -88 -47 -231q41 -25 41 -82q0 -33 -23 -60q-23 -25 -57 -24q-86 0 -86 98zM360 1284q0 96 48 213q49 123 77 123q39 0 47 -37q-45 -88 -47 -231q39 -25 39 -82q0 -33 -22 -60q-23 -25 -58 -24q-84 0 -84 98z" />
<glyph unicode="&#x201d;" horiz-adv-x="608" d="M78 1212q45 92 47 232q-41 25 -41 82q0 35 22 61q20 23 60 23q84 0 84 -99q0 -90 -49 -212.5t-76 -122.5q-39 -1 -47 36zM360 1212q43 80 50 232q-41 25 -41 82q0 33 22 59q23 25 58 25q84 0 83 -99q0 -90 -49 -212.5t-73 -122.5q-41 -1 -50 36z" />
<glyph unicode="&#x201e;" horiz-adv-x="604" d="M78 -193q45 92 47 232q-41 25 -41 82q0 35 22 61q20 23 60 23q84 0 84 -99q0 -90 -49 -212.5t-76 -122.5q-39 -1 -47 36zM360 -193q43 82 50 232q-41 25 -41 82q0 35 22 61q20 23 58 23q84 0 83 -99q0 -90 -49 -212.5t-73 -122.5q-41 -1 -50 36z" />
<glyph unicode="&#x2020;" horiz-adv-x="880" d="M76 985q0 37 26 64l260 -31q20 -6 24.5 -28.5t-9.5 -37.5l-248 -28q-23 -4 -39 16q-14 16 -14 45zM381 16l29 889q4 16 14 23q16 8 27 6q15 -3 24 -12l29 -879q4 -25 -17 -41q-16 -14 -45 -14q-43 -1 -61 28zM381 1395q-4 25 16.5 39t48.5 14q39 0 60 -27l-29 -366 q-6 -23 -28.5 -27t-36.5 10zM500 976.5q-4 24.5 8 39.5l246 31q25 8 39 -12.5t14 -51.5q0 -41 -27 -61l-258 28q-18 2 -22 26.5z" />
<glyph unicode="&#x2021;" horiz-adv-x="880" d="M76 449q0 39 26 61l258 -29q18 -6 22.5 -28.5t-7.5 -36.5l-246 -31q-25 -8 -39 12.5t-14 51.5zM76 985q0 37 26 64l260 -31q20 -6 24.5 -28.5t-9.5 -37.5l-248 -28q-23 -4 -39 16q-14 16 -14 45zM377 20l31 357q4 23 26.5 27t36.5 -11l31 -344q2 -27 -14.5 -41t-51.5 -14 q-36 -1 -59 26zM381 1395q-4 25 16.5 39t48.5 14q39 0 60 -27l-29 -366q-6 -23 -28.5 -27t-36.5 10zM403 504v393q0 29 23 35q27 6 55 -8v-392q0 -29 -22 -34q-22 -6 -56 6zM494 440q-3 22 12 37l248 29q25 4 39 -14q14 -16 14 -48q0 -39 -27 -63l-258 31q-24 5 -28 28z M500 976.5q-4 24.5 8 39.5l246 31q25 8 39 -12.5t14 -51.5q0 -41 -27 -61l-258 28q-18 2 -22 26.5z" />
<glyph unicode="&#x2022;" horiz-adv-x="436" d="M104 578q0 55 33 94t90 39q59 0 95 -37q35 -39 34 -96q0 -53 -34 -95q-33 -39 -95 -39q-123 1 -123 134z" />
<glyph unicode="&#x2026;" horiz-adv-x="997" d="M90 82q0 41 23 65q25 27 63 27q90 0 90 -92q0 -37 -24 -66q-25 -27 -66 -26q-86 0 -86 92zM412 82q0 37 24 65q25 27 62 27q90 0 90 -92q0 -37 -25 -66q-25 -27 -65 -26q-86 0 -86 92zM733 82q0 41 23 65q25 27 63 27q90 0 90 -92q0 -37 -24 -66q-25 -27 -66 -26 q-86 0 -86 92z" />
<glyph unicode="&#x202f;" horiz-adv-x="389" />
<glyph unicode="&#x2030;" horiz-adv-x="2050" d="M125 1075q0 377 289 377q143 0 207 -82q66 -84 65 -293q0 -379 -283 -379q-76 0 -118 15q-49 16 -86 53t-55.5 114.5t-18.5 194.5zM229 25l865 1427q66 -18 65 -51q0 -4 -215 -361l-430 -708l-215 -352q-70 14 -70 45zM233 1067q0 -164 39 -221.5t129 -57.5 q178 0 179 289q0 166 -39 223q-41 59 -127 60q-181 0 -181 -293zM748 360q0 377 288 377q141 0 207 -84t66 -293q0 -379 -281 -378q-145 0 -213 75q-67 78 -67 303zM856 352q0 -164 41 -223q39 -57 127 -57q180 0 180 288q0 160 -41 224q-41 61 -125 61q-182 0 -182 -293z M1364 360q0 377 291 377q141 0 206.5 -84t65.5 -293q0 -379 -282 -378q-76 0 -119 14q-49 16 -86 53q-39 39 -58 115q-18 76 -18 196zM1473 352q0 -162 40.5 -221t128.5 -59q178 0 179 288q0 164 -39 224q-41 61 -127 61q-182 0 -182 -293z" />
<glyph unicode="&#x2039;" horiz-adv-x="522" d="M57 512q0 53 305 512q18 0 35 -14q23 -18 27 -29l6 -14q0 -23 -65 -138q-66 -117 -134 -217l-65 -100q272 -395 272 -442q-27 -70 -65 -70q-316 453 -316 512z" />
<glyph unicode="&#x203a;" horiz-adv-x="522" d="M88 67.5q0 22.5 68 133.5q37 61 137 211l67 100q-266 397 -266 455q0 39 70 57q303 -457 303 -512q0 -23 -78 -154q-68 -113 -158 -241l-77 -117l-19 6q-12 4 -29 21q-18 18 -18 40.5z" />
<glyph unicode="&#x2044;" horiz-adv-x="399" d="M-250 27l817 1400q8 27 37 27q43 0 76 -43l-819 -1411q-8 -18 -33 -18q-51 0 -78 45z" />
<glyph unicode="&#x205f;" horiz-adv-x="487" />
<glyph unicode="&#x2074;" horiz-adv-x="837" d="M106 797q0 27 15 63q41 127 147 293q111 172 205 262q37 39 92 39q10 0 47 -6v-596h144q10 -27 10 -55q0 -53 -35 -54h-119v-122q0 -39 -61 -39q-20 0 -45 6v155h-383q-17 21 -17 54zM217 846h291l4 467q-86 -78 -168 -207q-90 -139 -127 -260z" />
<glyph unicode="&#x20ac;" d="M45 430q0 57 8 74q10 20 39 20h135v29q0 94 6 170h-188q0 57 8 74q10 20 39 20h152q23 135 59 219q39 86 96 131q53 41 107 58q55 16 114.5 16t108.5 -16.5t66 -32.5q20 -20 20 -31q0 -53 -22 -76q-10 8 -60 31q-43 18 -90 19q-41 0 -82 -11q-37 -8 -78 -40.5t-71 -98.5 q-33 -72 -47 -168h333q0 -53 -10 -73.5t-37 -20.5h-299q-6 -76 -6 -170v-29h277q0 -59 -9 -75q-8 -18 -39 -19h-225q10 -113 30.5 -182.5t59.5 -104.5q37 -33 72 -43q37 -10 86 -10q125 0 199 74q18 -37 18 -76q0 -31 -71.5 -69.5t-163.5 -38.5q-72 0 -127.5 16t-102.5 57 q-49 43 -80 140q-29 92 -39 237h-186z" />
<glyph unicode="&#x2122;" horiz-adv-x="1083" d="M70 1368v45q0 16 20 21h414v-45q0 -20 -19 -21h-155v-565q0 -12 -11 -17q-6 -2 -59 -2v584h-190zM553 784v629q0 20 20 21h43l103 -285l49 -125l41 123l98 266q6 20 21 21h49v-629q0 -12 -10 -17q-12 -4 -60 -4l2 234q0 35 6 237l-22 -65q-6 -20 -12.5 -35.5t-10.5 -26.5 q-2 -6 -4 -13t-4 -11l-2 -4l-67 -176q-4 -10 -11 -11h-43l-71 187l-56 151q8 -182 9 -235l2 -211q0 -14 -9 -17q-12 -4 -61 -4z" />
<glyph unicode="&#x2202;" horiz-adv-x="892" d="M94 526q0 252 92 383q92 133 258 133q139 0 226 -92q-77 304 -357 516q23 55 78 56q27 0 45 -19q197 -151 289 -368q94 -223 94 -543q0 -135 -12 -234q-12 -90 -51 -190q-35 -90 -111 -139q-74 -49 -182 -49q-188 0 -279 129q-90 130 -90 417zM207 510q0 -432 254 -432 q78 0 131 41q47 37 74 121q23 74 32 159q8 72 9 199q0 111 -11 197q-86 143 -227 143q-127 0 -194.5 -112.5t-67.5 -315.5z" />
<glyph unicode="&#x220f;" horiz-adv-x="903" d="M70 1372q0 61 41 62h710q10 -27 10 -54q0 -55 -43 -55h-81v-1679q0 -41 -60 -41q-20 0 -53 8v1712h-295v-1679q0 -41 -59 -41q-23 0 -54 8v1712h-106q-10 24 -10 47z" />
<glyph unicode="&#x2211;" horiz-adv-x="829" d="M119 -389l334 821l-332 1002h555q6 -31 6 -43q0 -63 -39 -64h-360l286 -903l-293 -707h410q6 -25 6 -49q0 -57 -39 -57h-534z" />
<glyph unicode="&#x2212;" d="M86 526v49q0 20 2 31q4 16 8 19q8 4 17 4h690q0 -53 -4 -82q-2 -20 -25 -21h-688z" />
<glyph unicode="&#x221a;" horiz-adv-x="952" d="M113 453q20 27 65 26q43 0 49 -30l162 -605l209 1590h305q8 -23 8 -54q0 -53 -39 -53h-174l-225 -1665q-8 -57 -76 -57q-27 0 -61 10z" />
<glyph unicode="&#x221e;" horiz-adv-x="1273" d="M106 547q0 121 62 207q59 84 211 84q104 0 162 -50q59 -51 108 -135q55 90 111 135q61 49 153 50q119 0 187 -76q70 -80 69 -215q0 -291 -247 -301q-27 -2 -76 8q-141 29 -215 186q-119 -184 -262 -184q-127 0 -195 82q-68 83 -68 209zM217 547q0 -78 41 -131.5 t117 -53.5q68 0 119 48q47 45 94 135l-2 8q-25 72 -70 119q-45 49 -106 51q-53 4 -91 -12q-102 -37 -102 -164zM692 543q78 -188 199 -189q77 0 123 49q45 47 45 144q0 137 -105 174q-23 8 -63 4q-31 0 -60 -12q-27 -12 -38 -25l-33 -39q-5 -6 -68 -106z" />
<glyph unicode="&#x222b;" horiz-adv-x="974" d="M33 -338q0 35 14 66q63 -25 152 -25q53 0 84 6q35 6 71 27q39 20 58 74q20 57 20 133v1220q0 98 21 162q20 68 53 102.5t80 53.5q59 23 88 24q49 4 92 4q86 0 131 -18t45 -45q0 -33 -12 -64q-68 25 -152 25q-52 0 -86 -6q-33 -6 -71.5 -26.5t-57.5 -74.5 q-18 -52 -18 -135v-1218q0 -100 -21 -164q-20 -68 -53 -102.5t-80 -53.5q-59 -23 -88 -24q-49 -4 -92 -4q-80 0 -131 20q-47 18 -47 43z" />
<glyph unicode="&#x2248;" horiz-adv-x="817" d="M31 393q37 49 94 84q66 39 141 39q71 0 148 -49q78 -49 139 -49q84 0 182 80q18 10 35 -6q14 -14 21 -48q-90 -133 -246 -133q-84 0 -156 51.5t-123 51.5q-90 0 -160 -82q-27 -18 -49 4q-24 24 -26 57zM31 657q96 127 241 127q68 0 146 -51q74 -49 135 -49q96 0 160 82 q16 16 35 10q20 -6 28 -24q6 -31 -2 -62q-80 -111 -225 -110q-78 0 -156 49q-77 49 -129 49q-31 0 -65 -10q-27 -8 -47 -21q-14 -8 -41 -29q-6 -6 -13.5 -10l-11.5 -6l-4 -2q-14 -8 -31 8q-18 18 -20 49z" />
<glyph unicode="&#x2260;" horiz-adv-x="817" d="M49 281v49q0 20 2 30q2 14 10.5 18.5t14.5 4.5h221l94 254h-342v49q0 18 2 29q4 16 10 20q8 4 15 4h352l100 271q10 29 39 28q33 0 74 -39l-96 -260h221q0 -57 -4 -82q-4 -20 -25 -20h-229l-92 -254h350q0 -57 -4 -82q-4 -20 -25 -20h-360l-98 -271q-10 -23 -39 -22 q-41 0 -74 39l92 254h-209z" />
<glyph unicode="&#x2264;" horiz-adv-x="851" d="M104 578q0 43 39 63l549 270q37 -37 41 -75q0 -25 -22 -37l-459 -226l487 -211q-4 -41 -18 -65q-16 -25 -33 -25q-20 0 -49 15l-514 225q-21 27 -21 66zM119 0q0 57 4 82q4 20 24 20h603q0 -59 -5 -84q-3 -18 -24 -18h-602z" />
<glyph unicode="&#x2265;" horiz-adv-x="841" d="M104 815q2 39 19 64q16 27 35 26q10 0 47 -14l514 -225q20 -27 20 -68q0 -43 -39 -63l-550 -271q-37 39 -37 76q0 29 20 37l459 225zM119 0q0 57 4 82q4 20 24 20h586q0 -59 -4 -84q-3 -18 -24 -18h-586z" />
<glyph unicode="&#x25ca;" horiz-adv-x="958" d="M74 717l409 727l410 -727l-410 -727zM197 717l286 -504l285 504l-285 506z" />
<glyph unicode="&#xe000;" horiz-adv-x="1025" d="M0 1025h1025v-1025h-1025v1025z" />
<glyph unicode="&#xfb00;" horiz-adv-x="940" d="M31 926q0 63 4 84q2 14 26 14h125v152q0 113 33 180t90 100q51 29 101 39q47 10 96 10q113 0 213 -65q80 74 237 73q176 0 177 -71q0 -25 -13 -56q-63 25 -151 25q-53 0 -84 -8q-47 -12 -74 -31q-41 -27 -57 -78q-18 -55 -19 -137v-133h213q0 -63 -4 -84q-2 -14 -22 -14 h-187v-899q0 -27 -28 -27h-84v926h-324v-899q0 -27 -29 -27h-84v926h-155zM299 1024h324v129q0 125 36 207q-63 45 -161 45q-31 0 -60 -6q-23 -4 -61 -25q-35 -16 -58 -69q-20 -47 -20 -125v-156z" />
<glyph unicode="&#xfb03;" horiz-adv-x="1257" d="M29 926q0 63 4 84q2 14 28 14h123v152q0 113 33 180q33 70 88 100q51 29 101 39q47 10 98 10q113 0 213 -65q80 74 252 73q207 0 207 -73q0 -37 -13 -68q-80 39 -192 39q-52 0 -86 -6q-33 -6 -74 -33q-39 -27 -57 -80q-18 -55 -19 -141v-127h172q0 -63 -4 -84 q-2 -14 -24 -14h-144v-899q0 -27 -28 -27h-84v926h-326v-899q0 -27 -27 -27h-86v926h-155zM297 1024h326v129q0 129 36 207q-63 45 -161 45q-34 0 -62 -6q-23 -4 -61 -25q-35 -16 -58 -69q-20 -47 -20 -125v-156zM1028 0v969q0 39 21 47q18 8 92 8v-997q0 -18 -13 -23 q-16 -4 -100 -4z" />
<glyph unicode="&#xfb04;" horiz-adv-x="1280" d="M29 926q0 63 4 84q2 14 28 14h123v152q0 113 33 180q33 70 88 100q51 29 101 39q47 10 98 10q109 0 207 -61q70 70 217 69q138 0 233 -55l-2 -2h2v-1429q0 -18 -12 -23q-16 -4 -98 -4v1391q-55 18 -117 18q-53 0 -72 -4q-31 -6 -61 -27q-33 -20 -49.5 -75.5t-16.5 -133.5 v-145h172q0 -63 -4 -84q-2 -14 -24 -14h-144v-899q0 -27 -28 -27h-84v926h-326v-899q0 -27 -27 -27h-86v926h-155zM297 1024h326v129q0 125 34 207q-63 45 -159 45q-34 0 -62 -6q-23 -4 -61 -25q-35 -16 -58 -69q-20 -47 -20 -125v-156z" />
<glyph horiz-adv-x="1351" d="M55 924q0 63 4 84q4 16 23 16h125v324q0 33 18.5 39t93.5 6v-369h248q0 -63 -4 -84q-4 -16 -20 -16h-224v-629q0 -59 5 -113q2 -37 26 -71q23 -31 64 -31q66 0 133 33q8 -31 8 -60q0 -37 -47 -55q-49 -18 -119 -18q-59 0 -98 22q-37 23 -55 70q-16 43 -23 96 q-6 49 -6 129v627h-152zM670 57q0 25 12 45l481 824h-248q-166 0 -231 -11q-4 37 -4 56q0 53 37 53h565q12 -12 12 -37q0 -33 -14 -59l-477 -822h237q184 0 248 17q2 -8 2 -53q0 -70 -43 -70h-557q-20 18 -20 57z" />
<glyph horiz-adv-x="835" d="M92 479q0 158 35 279q33 115 98 176q61 59 131 84q74 27 150 26q133 0 217 -73v-1069q0 -160 -92 -236q-90 -76 -250 -76q-115 0 -188.5 31t-73.5 70q0 37 24 67q111 -61 242 -61q90 0 157.5 49t67.5 172v160q-35 -41 -96 -68q-68 -29 -137 -28q-137 0 -211 108 q-74 106 -74 389zM213 479q0 -395 195 -395q145 0 204 141v676q-43 47 -135 47q-45 0 -92 -20q-39 -16 -84 -68q-41 -47 -65 -145q-23 -91 -23 -236z" />
<glyph horiz-adv-x="503" d="M27 926q0 63 4 84q2 14 28 14h123v248q0 240 221 239q135 0 136 -59q0 -33 -13 -57q-37 18 -104 18q-61 0 -94 -30.5t-33 -122.5v-236h213q0 -63 -4 -84q-2 -14 -25 -14h-184v-899q0 -27 -29 -27h-84v926h-155z" />
<glyph horiz-adv-x="921" d="M94 436q0 125 64 203q66 82 166 111q-76 8 -137.5 67.5t-61.5 175.5q0 141 92 232q90 88 248 100v197q0 29 22 39q18 8 80 8v-246q86 -8 158 -43q70 -35 100 -63q29 -29 29 -52q0 -41 -41 -94q-102 145 -293 146q-127 0 -201 -60q-78 -61 -77 -170q0 -172 213 -172 q68 0 135 10l-17 -110q-178 -6 -268 -82t-90 -189q0 -94 67.5 -155.5t200.5 -61.5q215 0 326 162q47 -47 47 -90q0 -14 -18 -39q-25 -33 -50 -55q-35 -33 -96 -55q-70 -27 -143 -35v-187q0 -29 -23 -39q-25 -10 -80 -10v234q-352 12 -352 323z" />
<glyph horiz-adv-x="1351" d="M88 815q0 304 86 449t287 145q100 0 170 -68q72 -68 71 -233q0 -47 -12 -119q-12 -70 -31 -76l259 33v205q0 61 24 80q27 20 90 20v-290l234 34q0 -66 -9 -84q-10 -23 -40 -26q-104 -15 -185 -25v-553q0 -135 19 -180q18 -47 79 -47q92 0 144 22q8 -27 8 -63 q0 -55 -178 -55q-104 0 -146 61q-41 63 -40 262v541q-455 -53 -713 -53q0 -119 16 -205q14 -78 53 -113q35 -33 68 -41q31 -8 90 -8q158 0 248 154q33 -39 33 -86q0 -27 -31 -64q-33 -39 -100 -72q-74 -35 -162 -34q-78 0 -139 20q-57 18 -103 70q-49 55 -69.5 149 t-20.5 250zM205 885q66 0 151.5 6t141.5 12l53 6q27 6 35 70q10 72 10 104q0 129 -37 181q-37 53 -106 53q-94 0 -166 -96q-74 -98 -82 -336z" />
<glyph horiz-adv-x="987" d="M106 2q14 43 15 119v1083q0 166 86 234q88 70 258 69q59 0 119 -16q57 -16 84 -37q29 -23 28 -35q0 -27 -28 -80q-84 66 -211 66q-119 0 -172 -59q-51 -57 -52 -207v-115h676q16 -33 -14 -98l-270 -410q133 -18 227 -102q92 -82 92 -232q0 -203 -104 -332 q-102 -127 -295 -126q-78 0 -133 16q-51 14 -72 35q-18 18 -18 37q0 41 26 79q84 -59 191 -59q132 0 209 92q76 90 75 250q0 186 -166 242q-74 27 -202 28l315 482h-537v-860q0 -47 -14 -64q-14 -18 -51 -18q-44 0 -62 18z" />
<glyph horiz-adv-x="735" d="M51 926q0 90 10 96q2 2 11 2h575q18 -34 -12 -98l-273 -410q137 -18 228 -100q92 -83 92 -234q0 -203 -104 -332q-102 -127 -293 -126q-80 0 -135 18q-59 20 -74 35q-16 16 -17 35q0 45 27 79q90 -59 190 -59q132 0 209 92q78 94 78 250q0 182 -166 242q-74 25 -202 28 l313 482h-457z" />
<glyph horiz-adv-x="1058" d="M6 924q0 63 4 84q4 16 23 16h168v324q0 33 18.5 39t91.5 6v-369h662q20 -31 -12 -98l-271 -410q133 -18 228 -102q90 -82 90 -232q0 -207 -101 -332q-102 -127 -289 -126q-70 0 -124 16q-51 14 -68 31q-18 18 -18 32q0 33 26 82q84 -53 180 -53q127 0 201 92t74 250 q0 182 -166 242q-74 27 -203 28l314 480h-523v-883q0 -31 -14 -37q-10 -4 -96 -4v924h-195z" />
<glyph horiz-adv-x="1675" d="M100 717q0 338 201 536q205 201 537 201q330 0 534 -201q203 -201 203 -536.5t-203 -536.5q-205 -201 -534 -200q-332 0 -537 200q-201 199 -201 537zM371 637q0 -37 43 -37h10q2 0 6 1l4 1q8 0 10 -2l119 -192v-70q0 -16 -12 -16q-6 0 -14 4q-4 2 -13 2q-37 0 -37 -39 q0 -35 43 -35q8 0 37 4t35 4q4 0 37 -4t37 -4q45 0 45 37t-33 37q-14 0 -20 -2q-4 -2 -7 -3q-2 -1 -4 -1q-12 0 -12 16v74l119 186q2 6 8 6q4 0 8 -1t6 -1h13q27 0 32 19q16 -18 31 -19h17q4 0 7 1l3 1q12 0 12 -26v-232q0 -25 -12 -24q-6 0 -12.5 2t-14.5 2q-35 0 -35 -35 q0 -37 41 -37q2 0 7.5 1t12.5 2t15 1q37 4 41 4q8 0 37 -4t31 -4q43 0 43 35q0 37 -35 37q-8 0 -14.5 -2t-12.5 -2q-12 0 -12 26v199l139 -252q27 -49 64 -49q55 0 55 90v242q0 25 14 24h11q39 0 39 35q0 39 -41 39q-18 0 -33 -2q-29 -4 -33 -4q-6 0 -35 4q-14 2 -31 2 q-23 0 -34 -12q-10 -10 -11 -27q0 -35 37 -35h17q23 0 22 -24v-201l-143 262l-4 12q-2 25 -39 25q-14 0 -24.5 -2t-29 -2t-30.5 2t-23 2q-29 0 -34 -23q-10 23 -35 23q-18 0 -35 -2q-33 -4 -39 -4t-35 4q-14 2 -31 2q-39 0 -38 -39q0 -37 38 -37q6 0 11 2q-2 -4 -13.5 -23.5 t-19.5 -35.5q-27 -45 -29 -54l-69 113h4q45 0 45 35q0 39 -41 39q-8 0 -33 -4t-31 -4q-2 0 -34.5 4t-36.5 4q-41 0 -41 -39zM461 795q0 -41 43 -41q25 0 45 6q14 4 34.5 4t32.5 -4q18 -6 35 -6q43 0 43 41q0 35 -35 34l-5 -1q-5 -1 -9 -1h-14q-10 0 -10 25v229q0 25 10 25 h14q4 0 9 -1l5 -1q8 0 23 10q12 9 12 25q0 37 -43 37q-18 0 -33 -2l-36 -5q-10 0 -39 5q-14 2 -35 2q-47 0 -47 -37q0 -12 10 -23q12 -12 27 -12q2 0 6 1t8 1h14q10 0 11 -25v-229q0 -25 -11 -25h-14q-4 0 -8 1t-6 1q-37 1 -37 -34zM731 1057q0 -63 39 -111q47 -59 111 -108 q76 -59 112 -109q37 49 113 109q68 53 111 106q41 51 40.5 112.5t-36.5 94.5q-39 35 -91 35q-88 0 -137 -90q-49 90 -137 90q-49 0 -88 -35q-37 -33 -37 -94z" />
<glyph horiz-adv-x="350" />
</font>
</defs>
</svg>
