<?xml version="1.0" standalone="no"?>
<!DOCTYPE svg PUBLIC "-//W3C//DTD SVG 1.1//EN" "http://www.w3.org/Graphics/SVG/1.1/DTD/svg11.dtd">
<svg xmlns="http://www.w3.org/2000/svg">
<defs >
<font id="Heebo" horiz-adv-x="1070" ><font-face
    font-family="Heebo"
    units-per-em="2048"
    panose-1="0 0 5 0 0 0 0 0 0 0"
    ascent="2146"
    descent="-862"
    alphabetic="0" />
<glyph unicode=" " glyph-name="space" horiz-adv-x="508" />
<glyph unicode="!" glyph-name="exclam" horiz-adv-x="529" d="M181 411L167 1456H363L349 411H181ZM322 199T351 169T381 93Q381 47 352 18T270 -11Q218 -11 190 18T161 93Q161 139 189 169T270 199Q322 199 351 169Z" />
<glyph unicode="&quot;" glyph-name="quotedbl" horiz-adv-x="658" d="M248 1044H136L137 1391V1536H278V1400L248 1044ZM519 1044H407L408 1398V1536H549V1400L519 1044Z" />
<glyph unicode="#" glyph-name="numbersign" horiz-adv-x="1263" d="M1006 902L937 547H1161V410H910L830 0H686L766 410H503L423 0H279L359 410H120V547H386L455 902H196V1040H482L563 1456H707L626 1040H889L970 1456H1115L1033 1040H1236V902H1006ZM862 902H599L530
547H793L862 902Z" />
<glyph unicode="$" glyph-name="dollar" horiz-adv-x="1151" d="M1042 206T939 104T656 -17V-208H507V-18Q397 -6 308 43T165 188T110 429H297Q297 274 378 207T575 139Q707 139 781 202T855 375Q855 467 791 531T574 646Q373 707 270 809T166 1080Q166 1190 209
1274T333 1409T524 1473V1692H675V1472Q844 1450 936 1331T1029 1009H843Q843 1099 815 1168T731 1277T597 1317Q476 1317 415 1254T353 1083Q353 1017 379 970T467 884T639 809Q774 765 862 710T996 573T1042 377Q1042 206 939 104Z" />
<glyph unicode="%" glyph-name="percent" horiz-adv-x="1500" d="M105 1259T141 1327T245 1436T403 1477Q494 1477 562 1437T666 1328T703 1176V1099Q703 1017 667 949T563 840T405 800Q314 800 246 840T142 948T105 1099V1176Q105 1259 141 1327ZM245 1024T286
972T405 920Q481 920 522 972T563 1099V1176Q563 1252 522 1304T403 1357Q352 1357 317 1332T263 1266T245 1176V1099Q245 1024 286 972ZM342 177L1053 1315L1158 1249L447 111L342 177ZM814 440T850 508T954 617T1112 657Q1203 657 1271 617T1375 509T1411 357V279Q1411
196 1375 128T1272 19T1114 -21Q1023 -21 955 19T851 127T814 279V357Q814 440 850 508ZM953 231T971 190T1025 124T1114 99Q1190 99 1231 151T1272 279V357Q1272 433 1231 485T1112 537Q1036 537 995 485T953 357V279Q953 231 971 190Z" />
<glyph unicode="&amp;" glyph-name="ampersand" horiz-adv-x="1274" d="M1044 0L948 115Q875 49 775 15T573 -20Q430 -20 323 32T159 178T101 391Q101 474 135 541T230 666T384 789Q301 890 261 966T220 1123Q220 1235 265 1314T392 1435T585 1476Q689 1476 768
1435T889 1323T932 1169Q932 1071 882 998T734 852L625 771L948 384Q1015 513 1015 672H1183Q1183 417 1060 250L1268 0H1044ZM528 1326T488 1300T428 1228T407 1129Q407 1077 437 1020T525 889L628 963Q697 1010 728 1054T759 1169Q759 1209 738 1245T678 1304T584
1326Q528 1326 488 1300ZM645 130T714 159T842 243L486 669L445 638Q351 568 320 505T288 391Q288 318 320 259T416 165T573 130Q645 130 714 159Z" />
<glyph unicode="&apos;" glyph-name="quotesingle" horiz-adv-x="358" d="M233 1058H103L104 1409V1536H255V1425L233 1058Z" />
<glyph unicode="(" glyph-name="parenleft" horiz-adv-x="702" d="M133 861T211 1080T403 1441T624 1643L663 1522Q577 1456 499 1332T371 1019T320 594V579Q320 342 370 154T498 -160T663 -359L624 -470Q517 -410 404 -268T212 92T133 581V591Q133 861 211 1080Z" />
<glyph unicode=")" glyph-name="parenright" horiz-adv-x="714" d="M568 311T490 93T298 -268T78 -470L39 -359Q125 -294 203 -167T331 151T382 579V594Q382 829 329 1019T198 1337T39 1531L78 1643Q185 1584 298 1442T489 1080T568 591V581Q568 311 490 93Z" />
<glyph unicode="*" glyph-name="asterisk" horiz-adv-x="882" d="M28 1075L75 1224L376 1112L367 1457H521L511 1107L807 1218L854 1066L548 975L745 703L619 610L435 899L255 617L129 708L329 984L28 1075Z" />
<glyph unicode="+" glyph-name="plus" horiz-adv-x="1162" d="M1076 607H671V146H484V607H78V780H484V1206H671V780H1076V607Z" />
<glyph unicode="," glyph-name="comma" horiz-adv-x="403" d="M310 -24T263 -124T134 -290L28 -218Q77 -149 102 -80T127 68V219H310V71Q310 -24 263 -124Z" />
<glyph unicode="-" glyph-name="hyphen" horiz-adv-x="565" d="M37 544V695H526V544H37Z" />
<glyph unicode="." glyph-name="period" horiz-adv-x="541" d="M314 209T344 178T375 97Q375 49 345 19T259 -11Q205 -11 175 19T144 97Q144 146 174 177T259 209Q314 209 344 178Z" />
<glyph unicode="/" glyph-name="slash" horiz-adv-x="846" d="M18 -125L626 1456H785L178 -125H18Z" />
<glyph unicode="0" glyph-name="zero" horiz-adv-x="1151" d="M1035 279T918 130T577 -20Q355 -20 235 130T115 621V844Q115 1184 233 1330T575 1476Q799 1476 917 1330T1035 844V621Q1035 279 918 130ZM848 1115T781 1220T575 1326Q439 1326 371 1220T302 875V592Q302
353 372 242T577 130Q714 130 781 240T848 592V875Q848 1115 781 1220Z" />
<glyph unicode="1" glyph-name="one" horiz-adv-x="1151" d="M543 0V1235L171 1098V1265L701 1464H730V0H543Z" />
<glyph unicode="2" glyph-name="two" horiz-adv-x="1151" d="M121 0V132L598 663Q687 762 735 829T802 951T822 1065Q822 1138 792 1197T705 1291T570 1326Q428 1326 354 1245T280 1028H93Q93 1153 148 1255T311 1416T570 1476Q705 1476 804 1428T956 1291T1009
1087Q1009 967 936 840T736 575L346 150H1076V0H121Z" />
<glyph unicode="3" glyph-name="three" horiz-adv-x="1151" d="M901 705T959 613T1018 406Q1018 273 958 177T794 31T557 -20Q428 -20 323 28T157 167T95 385H282Q282 309 315 251T411 162T557 130Q686 130 758 199T831 402Q831 535 750 601T523 668H391V778V818H523Q616
818 680 850T777 939T809 1069Q809 1195 746 1260T556 1326Q478 1326 419 1295T327 1208T294 1075H107Q107 1186 163 1278T322 1423T556 1476Q689 1476 788 1429T941 1290T996 1065Q996 1008 971 947T895 833T767 748Q901 705 959 613Z" />
<glyph unicode="4" glyph-name="four" horiz-adv-x="1151" d="M1105 339H903V0H716V339H53V447L704 1456H856H903V489H1105V339ZM716 489V1204L694 1165L264 489H716Z" />
<glyph unicode="5" glyph-name="five" horiz-adv-x="1151" d="M280 1456H1027V1287H438L395 888Q440 915 501 933T637 951Q770 951 867 892T1017 722T1070 464Q1070 322 1019 213T864 42T609 -20Q488 -20 390 25T229 160T154 383H331Q348 259 419 195T609 130Q695
130 756 170T850 285T883 462Q883 555 849 628T750 744T593 786Q534 786 494 776T424 746T356 693L206 731L280 1456Z" />
<glyph unicode="6" glyph-name="six" horiz-adv-x="1151" d="M774 955T868 888T1007 711T1053 475Q1053 335 1001 223T847 45T601 -20Q451 -20 345 60T186 268T133 538V626Q133 990 288 1224T831 1458H847V1302H831Q584 1302 463 1168T324 824Q382 890 461 922T636
955Q774 955 868 888ZM685 132T745 174T837 292T869 466Q869 556 840 633T751 756T605 803Q542 803 484 777T384 705T320 603V533Q320 408 359 317T462 179T601 132Q685 132 745 174Z" />
<glyph unicode="7" glyph-name="seven" horiz-adv-x="1151" d="M460 0H264L865 1306H78V1456H1063V1353L460 0Z" />
<glyph unicode="8" glyph-name="eight" horiz-adv-x="1151" d="M906 701T972 607T1039 394Q1039 265 979 171T813 29T576 -20Q444 -20 339 28T173 170T113 394Q113 514 178 608T357 751Q258 799 202 884T146 1077Q146 1201 201 1291T353 1429T576 1476Q701 1476
798 1429T950 1291T1005 1077Q1005 970 948 884T792 750Q906 701 972 607ZM504 1326T449 1295T364 1207T333 1074Q333 999 363 943T448 856T576 825Q648 825 703 856T788 943T818 1074Q818 1146 788 1203T702 1293T576 1326Q504 1326 449 1295ZM705 130T778 201T852
398Q852 478 817 541T719 639T574 674Q491 674 429 639T334 542T300 398Q300 272 373 201T576 130Q705 130 778 201Z" />
<glyph unicode="9" glyph-name="nine" horiz-adv-x="1151" d="M711 1476T815 1394T968 1178T1017 888V819Q1017 593 965 414T760 117T324 -2H305V154H324Q600 154 710 286T830 640Q770 569 689 528T516 487Q379 487 285 556T146 737T100 973Q100 1114 152 1228T306
1409T552 1476Q711 1476 815 1394ZM638 639T715 695T831 839V912Q831 1040 793 1133T691 1275T552 1324Q469 1324 408 1280T315 1159T283 983Q283 893 312 815T401 688T546 639Q638 639 715 695Z" />
<glyph unicode=":" glyph-name="colon" horiz-adv-x="498" d="M559 209T589 178T620 97Q620 49 590 19T504 -11Q450 -11 420 19T389 97Q389 146 419 177T504 209Q559 209 589 178ZM304 1093T334 1062T365 981Q365 933 335 903T249 873Q195 873 165 903T134 981Q134
1030 164 1061T249 1093Q304 1093 334 1062Z" />
<glyph unicode=";" glyph-name="semicolon" horiz-adv-x="434" d="M280 1093T310 1062T341 981Q341 933 311 903T225 873Q171 873 141 903T110 981Q110 1030 140 1061T225 1093Q280 1093 310 1062ZM323 -24T276 -124T147 -290L41 -218Q90 -149 115 -80T140 68V219H323V71Q323
-24 276 -124Z" />
<glyph unicode="&lt;" glyph-name="less" horiz-adv-x="1041" d="M890 904L266 645L890 391V196L72 575V690V720L890 1098V904Z" />
<glyph unicode="=" glyph-name="equal" horiz-adv-x="1124" d="M152 815V974H986V815H152ZM152 400V559H986V400H152Z" />
<glyph unicode="&gt;" glyph-name="greater" horiz-adv-x="1071" d="M989 721V606V577L135 198V388L796 651L135 910V1099L989 721Z" />
<glyph unicode="?" glyph-name="question" horiz-adv-x="969" d="M358 505T374 566T424 676T529 796Q529 796 560 827Q611 879 638 912T683 990T701 1091Q701 1197 646 1256T487 1316Q426 1316 375 1294T293 1227T262 1115H75Q76 1225 130 1307T278 1432T487 1476Q613
1476 703 1430T840 1299T887 1096Q887 1012 853 937T766 799T637 663Q585 616 565 554T544 410H357Q358 505 374 566ZM511 199T540 169T569 93Q569 47 540 18T459 -11Q407 -11 378 18T349 93Q349 139 378 169T459 199Q511 199 540 169Z" />
<glyph unicode="@" glyph-name="at" horiz-adv-x="1838" d="M1211 1431T1384 1327T1646 1028T1736 568Q1736 525 1735 503Q1730 369 1687 250T1553 55T1326 -21Q1234 -21 1173 23T1086 148Q1034 66 964 23T819 -21Q688 -21 617 76T546 341Q546 364 550 418Q565
588 628 718T785 919T982 990Q1050 990 1100 976T1187 941T1271 883L1220 329Q1218 311 1218 278Q1218 176 1255 137T1347 98Q1425 98 1481 151T1569 296T1605 503Q1607 555 1607 578Q1607 926 1447 1113T964 1300Q758 1300 603 1197T359 908T261 478Q259 432 259
412Q259 182 334 16T552 -240T896 -329Q985 -329 1075 -308T1227 -251L1265 -364Q1199 -407 1096 -430T892 -453Q650 -453 475 -348T207 -48T114 416Q114 457 115 478Q127 752 235 968T533 1308T968 1431Q1211 1431 1384 1327ZM922 122T978 171T1071 321L1072 329L1118
833Q1062 862 998 862Q925 862 864 812T763 661T710 418Q707 384 707 352Q707 241 747 182T865 122Q922 122 978 171Z" />
<glyph unicode="A" glyph-name="A" horiz-adv-x="1338" d="M973 381H366L228 0H28L584 1456H712H754L1311 0H1112L973 381ZM916 538L669 1218L423 538H916Z" />
<glyph unicode="B" glyph-name="B" horiz-adv-x="1276" d="M1026 735T1093 641T1160 420Q1160 286 1101 192T934 49T679 0H243H169V1456H647Q876 1456 999 1361T1122 1068Q1122 968 1065 889T905 767Q1026 735 1093 641ZM363 1299V835H652Q734 835 796 863T893
944T928 1070Q928 1189 859 1244T647 1299H363ZM814 156T890 226T966 418Q966 544 898 613T688 682H363V156H679Q814 156 890 226Z" />
<glyph unicode="C" glyph-name="C" horiz-adv-x="1333" d="M1225 320T1160 212T977 42T688 -20Q519 -20 390 63T190 300T119 654V801Q119 1003 190 1156T395 1392T706 1476Q867 1476 982 1416T1161 1246T1241 989H1047Q1024 1152 945 1235T706 1319Q579 1319 491
1255T359 1075T314 803V654Q314 506 355 389T480 204T688 136Q807 136 880 173T991 282T1047 462H1241Q1225 320 1160 212Z" />
<glyph unicode="D" glyph-name="D" horiz-adv-x="1344" d="M771 1456T916 1373T1142 1134T1223 772V684Q1223 475 1143 321T913 83T563 0H259H169V1456H363H580Q771 1456 916 1373ZM1031 774Q1031 940 979 1057T825 1237T580 1299H363V156H563Q715 156 820 220T978
403T1031 684V774Z" />
<glyph unicode="E" glyph-name="E" horiz-adv-x="1164" d="M1094 156V0H325H169V1456H363H1084V1299H363V830H992V674H363V156H1094Z" />
<glyph unicode="F" glyph-name="F" horiz-adv-x="1132" d="M363 1299V800H972V644H363V0H169V1456H363H1071V1299H363Z" />
<glyph unicode="G" glyph-name="G" horiz-adv-x="1395" d="M1187 107T1067 44T730 -20Q552 -20 415 62T200 301T122 671V786Q122 1003 190 1157T389 1394T707 1476Q947 1476 1081 1355T1245 1030H1051Q1029 1160 947 1239T708 1319Q511 1319 414 1180T317 788V671Q317
506 368 385T513 200T731 136Q868 136 940 166T1052 242V570H716V725H1245V191Q1187 107 1067 44Z" />
<glyph unicode="H" glyph-name="H" horiz-adv-x="1461" d="M1289 1456V0H1095V674H363V0H169V1456H363V830H1095V1456H1289Z" />
<glyph unicode="I" glyph-name="I" horiz-adv-x="558" d="M183 0V1456H377V0H183Z" />
<glyph unicode="J" glyph-name="J" horiz-adv-x="1130" d="M973 1456V426Q973 285 915 185T752 32T513 -20Q376 -20 273 27T111 168T53 403H247Q247 270 319 203T513 136Q590 136 650 169T744 268T779 426V1456H973Z" />
<glyph unicode="K" glyph-name="K" horiz-adv-x="1285" d="M541 678L363 494V0H169V1456H363V738L1008 1456H1242L669 814L1286 0H1054L541 678Z" />
<glyph unicode="L" glyph-name="L" horiz-adv-x="1103" d="M1053 156V0H325H169V1456H363V156H1053Z" />
<glyph unicode="M" glyph-name="M" horiz-adv-x="1789" d="M1619 0H1426V569L1444 1176L967 0H820L344 1175L362 569V0H169V1456H335H419L894 266L1369 1456H1619V0Z" />
<glyph unicode="N" glyph-name="N" horiz-adv-x="1461" d="M1094 0L363 1126V0H169V1456H363L1097 327V1456H1289V0H1094Z" />
<glyph unicode="O" glyph-name="O" horiz-adv-x="1410" d="M1290 465T1219 307T1015 65T706 -20Q534 -20 401 65T193 308T118 681V774Q118 988 192 1147T399 1391T704 1476Q881 1476 1013 1391T1218 1148T1290 774V681Q1290 465 1219 307ZM1098 948T1052 1068T917
1251T704 1313Q585 1313 496 1251T359 1068T311 776V681Q311 509 359 388T497 205T706 142Q894 142 996 281T1098 681V776Q1098 948 1052 1068Z" />
<glyph unicode="P" glyph-name="P" horiz-adv-x="1293" d="M868 1456T983 1400T1158 1243T1218 1012Q1218 872 1159 773T986 623T707 571H363V0H169V1456H707Q868 1456 983 1400ZM869 727T946 803T1024 1010Q1024 1089 991 1154T886 1259T707 1299H363V727H707Q869
727 946 803Z" />
<glyph unicode="Q" glyph-name="Q" horiz-adv-x="1410" d="M1156 -247L848 -2Q778 -20 697 -20Q525 -20 392 65T184 308T109 681V774Q109 988 183 1147T390 1391T695 1476Q872 1476 1004 1392T1209 1148T1282 774V681Q1282 474 1216 320T1027 78L1287 -127L1156
-247ZM303 509T351 388T489 205T697 142Q885 142 987 281T1089 681V776Q1089 948 1043 1068T908 1251T695 1313Q576 1313 488 1251T351 1068T303 776V681Q303 509 351 388Z" />
<glyph unicode="R" glyph-name="R" horiz-adv-x="1261" d="M1226 12V0H1018L702 590H363V0H169V1456H651Q898 1456 1030 1344T1162 1019Q1162 884 1089 783T884 630L1226 12ZM656 746Q756 746 826 782T931 880T967 1019Q967 1151 889 1225T651 1299H363V746H656Z" />
<glyph unicode="S" glyph-name="S" horiz-adv-x="1216" d="M367 718T247 818T127 1080Q127 1193 188 1283T362 1424T621 1476Q780 1476 896 1415T1074 1253T1136 1036H941Q941 1164 860 1241T621 1319Q474 1319 398 1254T322 1083Q322 1021 357 974T466 889T661
817Q829 770 933 709T1088 566T1139 370Q1139 253 1077 165T899 28T631 -20Q492 -20 366 31T160 183T81 422H275Q275 326 323 262T452 167T631 136Q780 136 862 198T944 368Q944 439 915 486T811 572T598 651Q367 718 247 818Z" />
<glyph unicode="T" glyph-name="T" horiz-adv-x="1222" d="M1175 1299H708V0H516V1299H50V1456H708H1175V1299Z" />
<glyph unicode="U" glyph-name="U" horiz-adv-x="1328" d="M1195 471Q1195 313 1124 202T932 36T666 -20Q514 -20 396 35T209 201T140 471V1456H332V471Q332 305 421 221T666 136Q822 136 911 220T1000 471V1456H1195V471Z" />
<glyph unicode="V" glyph-name="V" horiz-adv-x="1305" d="M1278 1456L739 0H589H567L29 1456H240L652 256L1067 1456H1278Z" />
<glyph unicode="W" glyph-name="W" horiz-adv-x="1817" d="M1773 1456L1421 0H1282H1244L945 1063L923 1172L900 1063L590 0H449H413L61 1456H255L484 458L512 268L552 439L840 1456H982H1003L1283 439L1323 264L1354 459L1578 1456H1773Z" />
<glyph unicode="X" glyph-name="X" horiz-adv-x="1285" d="M993 1456H1220L761 735L1231 0H1002L645 570L286 0H58L529 735L68 1456H296L645 897L993 1456Z" />
<glyph unicode="Y" glyph-name="Y" horiz-adv-x="1230" d="M992 1456H1212L711 544V0H516V544L15 1456H237L614 724L992 1456Z" />
<glyph unicode="Z" glyph-name="Z" horiz-adv-x="1227" d="M1146 156V0H160H87V143L885 1299H99V1456H1032H1114V1317L314 156H1146Z" />
<glyph unicode="[" glyph-name="bracketleft" horiz-adv-x="545" d="M333 1514V-162H524V-312H146V1664H524V1514H333Z" />
<glyph unicode="\" glyph-name="backslash" horiz-adv-x="841" d="M218 1456L826 -125H649L41 1456H218Z" />
<glyph unicode="]" glyph-name="bracketright" horiz-adv-x="545" d="M389 1664V-312H10V-162H202V1514H10V1664H389Z" />
<glyph unicode="^" glyph-name="asciicircum" horiz-adv-x="856" d="M616 729L427 1213L237 729H64L363 1456H475H491L789 729H616Z" />
<glyph unicode="_" glyph-name="underscore" horiz-adv-x="925" d="M4 -150V0H921V-150H4Z" />
<glyph unicode="`" glyph-name="grave" horiz-adv-x="634" d="M315 1243L56 1536H281L475 1243H315Z" />
<glyph unicode="a" glyph-name="a" horiz-adv-x="1115" d="M965 179T975 119T1003 16V0H808Q791 39 782 113Q726 53 648 17T475 -20Q367 -20 284 22T155 138T109 300Q109 415 168 495T337 615T596 656H778V742Q778 841 720 897T551 954Q484 954 431 931T349 868T319
782H132Q132 861 186 935T338 1055T562 1102Q682 1102 772 1062T914 940T965 740V236Q965 179 975 119ZM566 140T621 162T717 222T778 302V526H626Q466 526 381 476T296 326Q296 273 320 231T390 165T502 140Q566 140 621 162Z" />
<glyph unicode="b" glyph-name="b" horiz-adv-x="1150" d="M768 1102T863 1034T1007 841T1057 550V529Q1057 370 1008 246T863 51T637 -20Q432 -20 320 123L311 0H140V1536H327V966Q438 1102 635 1102Q768 1102 863 1034ZM870 550Q870 728 803 837T588 947Q493
947 429 902T327 778V305Q365 228 430 182T590 136Q731 136 800 245T870 529V550Z" />
<glyph unicode="c" glyph-name="c" horiz-adv-x="1073" d="M1006 342Q1001 247 941 164T784 30T574 -20Q417 -20 309 52T146 247T92 520V562Q92 712 146 834T308 1029T574 1102Q698 1102 794 1051T946 911T1006 710H829Q824 777 791 832T702 920T574 952Q467 952
401 897T307 754T279 562V520Q279 354 347 242T574 130Q639 130 695 157T788 233T829 342H1006Z" />
<glyph unicode="d" glyph-name="d" horiz-adv-x="1156" d="M1009 1536V0H838L829 115Q719 -20 521 -20Q396 -20 299 51T149 247T95 529V550Q95 714 148 839T298 1033T523 1102Q714 1102 822 975V1536H1009ZM740 136T822 293V794Q784 865 722 906T569 947Q472 947
408 895T313 752T282 550V529Q282 417 312 329T407 188T567 136Q740 136 822 293Z" />
<glyph unicode="e" glyph-name="e" horiz-adv-x="1087" d="M1012 490H280Q283 389 322 307T432 178T600 130Q694 130 762 168T885 277L998 189Q938 97 838 39T590 -20Q442 -20 329 47T155 233T93 503V546Q93 715 159 841T333 1035T566 1102Q717 1102 816 1035T964
848T1012 573V490ZM825 654Q817 781 757 866T566 952Q454 952 380 871T286 640H825V654Z" />
<glyph unicode="f" glyph-name="f" horiz-adv-x="712" d="M516 1400T467 1348T418 1197V1082H648V941H418V0H231V941H61V1082H231V1197Q231 1370 325 1463T588 1557Q649 1557 715 1541L705 1392Q660 1400 605 1400Q516 1400 467 1348Z" />
<glyph unicode="g" glyph-name="g" horiz-adv-x="1150" d="M1011 1082V23Q1011 -118 953 -219T792 -374T552 -427Q489 -427 414 -408T268 -347T151 -239L248 -130Q368 -277 538 -277Q671 -277 747 -202T824 14V107Q714 -20 522 -20Q394 -20 298 51T149 246T96
529V550Q96 714 148 839T297 1033T524 1102Q722 1102 833 963L841 1082H1011ZM742 136T824 295V792Q786 864 723 905T570 947Q473 947 409 895T314 752T283 550V529Q283 417 313 329T408 188T568 136Q742 136 824 295Z" />
<glyph unicode="h" glyph-name="h" horiz-adv-x="1128" d="M992 1102T992 709V0H805V711Q805 835 752 891T590 947Q504 947 436 900T327 774V0H140V1536H327V954Q386 1025 467 1063T645 1102Q992 1102 992 709Z" />
<glyph unicode="i" glyph-name="i" horiz-adv-x="498" d="M303 1476T332 1446T362 1370Q362 1325 333 1296T251 1266Q199 1266 171 1295T142 1370Q142 1416 170 1446T251 1476Q303 1476 332 1446ZM156 0V1082H343V0H156Z" />
<glyph unicode="j" glyph-name="j" horiz-adv-x="491" d="M288 1476T317 1446T347 1370Q347 1325 318 1296T236 1266Q184 1266 156 1295T127 1370Q127 1416 155 1446T236 1476Q288 1476 317 1446ZM333 -129Q333 -280 262 -358T50 -437Q24 -437 -9 -432T-65 -420L-64
-272Q-27 -281 21 -281Q83 -281 114 -246T146 -129V1082H333V-129Z" />
<glyph unicode="k" glyph-name="k" horiz-adv-x="1039" d="M444 502L328 382V0H141V1536H328V608L427 725L761 1082H988L567 631L1038 0H818L444 502Z" />
<glyph unicode="l" glyph-name="l" horiz-adv-x="498" d="M156 0V1536H343V0H156Z" />
<glyph unicode="m" glyph-name="m" horiz-adv-x="1795" d="M1472 1102T1564 1007T1656 711V0H1469V713Q1469 842 1411 894T1239 947Q1167 947 1113 917T1029 834T991 717V0H804V712Q804 947 573 947Q480 947 419 907T326 794V0H139V1082H316L322 965Q378 1031
458 1066T641 1102Q748 1102 828 1060T950 930Q1006 1010 1093 1056T1294 1102Q1472 1102 1564 1007Z" />
<glyph unicode="n" glyph-name="n" horiz-adv-x="1131" d="M992 1102T992 709V0H805V711Q805 835 752 891T590 947Q504 947 436 900T327 774V0H140V1082H317L323 949Q382 1022 464 1062T645 1102Q992 1102 992 709Z" />
<glyph unicode="o" glyph-name="o" horiz-adv-x="1169" d="M92 709T152 834T323 1030T583 1102Q733 1102 845 1031T1017 834T1077 552V529Q1077 372 1017 248T846 52T585 -20Q436 -20 325 51T153 247T92 529V552Q92 709 152 834ZM279 419T313 328T417 184T585
130Q683 130 752 183T855 328T890 529V552Q890 662 855 753T751 898T583 952Q485 952 417 898T314 753T279 552V529Q279 419 313 328Z" />
<glyph unicode="p" glyph-name="p" horiz-adv-x="1150" d="M767 1102T862 1034T1006 841T1055 550V529Q1055 370 1006 246T862 51T636 -20Q440 -20 327 104V-416H140V1082H310L320 964Q433 1102 633 1102Q767 1102 862 1034ZM868 550Q868 662 837 751T740 894T577
947Q489 947 427 907T327 798V277Q410 130 579 130Q675 130 740 183T836 327T868 529V550Z" />
<glyph unicode="q" glyph-name="q" horiz-adv-x="1165" d="M1008 1082V-416H821V98Q711 -20 524 -20Q393 -20 296 50T147 246T95 529V550Q95 715 146 840T295 1033T526 1102Q717 1102 829 975L837 1082H1008ZM735 130T821 276V809Q782 875 720 913T573 952Q476
952 411 898T314 753T282 550V529Q282 417 313 327T410 184T571 130Q735 130 821 276Z" />
<glyph unicode="r" glyph-name="r" horiz-adv-x="694" d="M600 1102T627 1098T664 1088V917Q621 925 573 925Q481 925 420 884T327 769V0H140V1082H322L326 959Q368 1027 432 1064T582 1102Q600 1102 627 1098Z" />
<glyph unicode="s" glyph-name="s" horiz-adv-x="1057" d="M329 515T231 587T132 786Q132 872 182 944T323 1059T533 1102Q659 1102 753 1057T896 936T946 765H759Q759 811 732 854T654 924T533 952Q460 952 412 930T342 871T319 792Q319 749 339 721T413 669T568
624Q704 593 789 551T915 448T957 300Q957 206 905 134T758 21T538 -20Q400 -20 300 29T147 160T95 333H282Q286 261 324 216T418 150T538 130Q611 130 663 150T743 206T770 287Q770 332 751 365T678 426T522 475Q329 515 231 587Z" />
<glyph unicode="t" glyph-name="t" horiz-adv-x="670" d="M599 0Q535 -20 456 -20Q343 -20 275 48T206 269V941H9V1082H206V1345H393V1082H595V941H393V268Q393 191 425 165T512 138Q533 138 558 141T598 149L599 0Z" />
<glyph unicode="u" glyph-name="u" horiz-adv-x="1129" d="M989 1082V0H811L808 107Q700 -20 491 -20Q324 -20 230 78T136 384V1082H323V382Q323 247 378 192T521 136Q731 136 802 293V1082H989Z" />
<glyph unicode="v" glyph-name="v" horiz-adv-x="993" d="M955 1082L567 0H441H425L33 1082H224L498 253L764 1082H955Z" />
<glyph unicode="w" glyph-name="w" horiz-adv-x="1539" d="M1491 1082L1177 0H1053H1026L764 817L508 0H389H357L43 1082H229L441 279L692 1082H815H843L1098 261L1306 1082H1491Z" />
<glyph unicode="x" glyph-name="x" horiz-adv-x="1016" d="M742 1082H960L607 548L971 0H756L507 407L259 0H41L406 548L52 1082H268L504 687L742 1082Z" />
<glyph unicode="y" glyph-name="y" horiz-adv-x="969" d="M944 1082L510 -167Q470 -276 395 -356T189 -437Q168 -437 135 -432T84 -421V-272Q95 -274 109 -275T134 -277Q229 -277 281 -238T367 -99L408 12L22 1082H226L494 272L745 1082H944Z" />
<glyph unicode="z" glyph-name="z" horiz-adv-x="1016" d="M947 150V0H160H89V135L686 931H97V1082H836H918V952L316 150H947Z" />
<glyph unicode="{" glyph-name="braceleft" horiz-adv-x="694" d="M463 -36T511 -127T671 -253L632 -367Q440 -313 358 -193T276 98V305Q276 418 225 480T64 543V664V687Q173 687 224 749T276 925V1132Q276 1303 358 1423T632 1597L671 1484Q559 1448 511 1357T463
1132V925Q463 821 422 741T295 615Q380 570 421 490T463 305V98Q463 -36 511 -127Z" />
<glyph unicode="|" glyph-name="bar" horiz-adv-x="501" d="M176 -270V1456H326V-270H176Z" />
<glyph unicode="}" glyph-name="braceright" horiz-adv-x="694" d="M415 812T467 750T627 687V575V543Q519 543 467 480T415 305V98Q415 -74 334 -193T59 -367L20 -253Q132 -218 180 -127T228 98V305Q228 413 273 493T412 615Q319 656 274 736T228 925V1132Q228
1266 180 1357T20 1484L59 1597Q252 1543 333 1424T415 1132V925Q415 812 467 750Z" />
<glyph unicode="~" glyph-name="asciitilde" horiz-adv-x="1393" d="M1263 675T1222 590T1106 454T939 403Q856 403 790 435T641 542Q586 593 544 617T454 641Q378 641 336 587T293 438L131 437Q131 540 172 623T287 754T454 802Q537 802 605 769T753 663Q810
610 851 587T939 564Q989 564 1028 591T1088 666T1110 777H1263Q1263 675 1222 590Z" />
<glyph unicode="&#xa1;" glyph-name="exclamdown" horiz-adv-x="501" d="M198 891T169 921T139 997Q139 1042 168 1071T250 1101Q302 1101 330 1072T359 997Q359 951 331 921T250 891Q198 891 169 921ZM339 684L353 -361H157L171 684H339Z" />
<glyph unicode="&#xa2;" glyph-name="cent" horiz-adv-x="1121" d="M652 130T708 157T800 233T841 342H1018Q1014 259 967 184T842 57T670 -12V-245H483V-11Q359 12 274 88T147 276T105 520V562Q105 694 147 806T274 994T483 1093V1318H670V1096Q771 1080 848
1026T970 890T1018 710H841Q836 778 804 833T715 920T587 952Q430 952 361 840T292 562V520Q292 354 360 242T587 130Q652 130 708 157Z" />
<glyph unicode="&#xa3;" glyph-name="sterling" horiz-adv-x="1191" d="M1129 156L1128 0H95V156H172Q219 168 241 243T264 401L256 623H91V779H251L242 1039Q242 1174 299 1273T458 1424T687 1476Q815 1476 908 1428T1051 1291T1101 1087H907Q907 1205 840 1262T671
1320Q605 1320 552 1287T467 1191T436 1039L445 779H763V623H451L458 402Q459 330 443 266T396 156H1129Z" />
<glyph unicode="&#xa4;" glyph-name="currency" horiz-adv-x="1460" d="M1330 510T1304 420T1228 253L1371 109L1238 -27L1102 111Q1025 48 931 14T735 -20Q634 -20 541 14T370 110L237 -26L105 109L244 250Q194 327 167 418T140 608Q140 712 169 806T253 979L105
1129L237 1264L383 1115Q458 1172 547 1203T735 1234Q833 1234 924 1203T1090 1114L1238 1265L1371 1129L1220 975Q1273 897 1301 804T1330 608Q1330 510 1304 420ZM850 150T946 212T1099 379T1156 608Q1156 732 1100 836T947 1002T735 1064Q620 1064 524 1003T370
837T313 608Q313 484 370 379T523 212T735 150Q850 150 946 212Z" />
<glyph unicode="&#xa5;" glyph-name="yen" horiz-adv-x="1076" d="M695 736H955V612H631V446H955V322H631V0H437V322H120V446H437V612H120V736H382L15 1456H233L539 796L846 1456H1061L695 736Z" />
<glyph unicode="&#xa6;" glyph-name="brokenbar" horiz-adv-x="493" d="M147 698V1456H334V698H147ZM147 521H334V-270H147V521Z" />
<glyph unicode="&#xa7;" glyph-name="section" horiz-adv-x="1257" d="M1031 108T1066 39T1101 -129Q1101 -243 1041 -325T871 -451T613 -495Q474 -495 356 -453T164 -314T90 -64L277 -62Q277 -162 326 -225T451 -317T613 -345Q707 -345 775 -317T878 -241T914
-131Q914 -68 883 -27T777 50T563 127Q405 169 305 220T150 351T96 551Q96 643 144 713T279 825Q210 876 176 945T141 1111Q141 1221 201 1303T373 1431T631 1477Q784 1477 894 1427T1064 1280T1123 1046H936Q936 1124 901 1188T796 1289T631 1326Q530 1326 462
1298T361 1221T328 1113Q328 1044 357 1002T458 928T677 854Q840 809 939 759T1092 631T1146 431Q1146 338 1098 268T959 158Q1031 108 1066 39ZM283 484T312 441T416 364T637 289Q740 259 798 238Q875 258 917 308T959 428Q959 491 927 534T819 614T603 692Q504
718 438 744Q361 726 322 676T283 553Q283 484 312 441Z" />
<glyph unicode="&#xa8;" glyph-name="dieresis" horiz-adv-x="856" d="M262 1478T291 1448T320 1372Q320 1327 291 1298T210 1268Q158 1268 129 1297T100 1372Q100 1418 129 1448T210 1478Q262 1478 291 1448ZM692 1476T721 1446T751 1370Q751 1325 722 1296T640
1266Q588 1266 560 1295T531 1370Q531 1416 559 1446T640 1476Q692 1476 721 1446Z" />
<glyph unicode="&#xa9;" glyph-name="copyright" horiz-adv-x="1609" d="M994 1476T1156 1378T1414 1108T1510 729Q1510 521 1415 350T1157 79T801 -21Q607 -21 445 78T187 349T91 729Q91 937 186 1108T444 1377T801 1476Q994 1476 1156 1378ZM962 98T1098 181T1314
409T1394 729Q1394 904 1315 1047T1099 1274T801 1357Q639 1357 503 1274T287 1048T207 729Q207 554 287 410T503 182T801 98Q962 98 1098 181ZM1119 443T1032 364T788 284Q683 284 605 332T484 469T441 671V786Q441 900 483 988T604 1124T788 1173Q944 1173 1032
1094T1120 860H974Q974 957 928 1001T788 1046Q692 1046 639 975T586 787V671Q586 553 638 483T788 412Q881 412 927 455T973 598H1119Q1119 443 1032 364Z" />
<glyph unicode="&#xaa;" glyph-name="ordfeminine" horiz-adv-x="916" d="M618 706Q606 744 601 778Q566 740 515 716T396 692Q278 692 213 753T147 918Q147 1030 232 1089T486 1149H594V1202Q594 1268 564 1302T471 1337Q401 1337 363 1310T324 1231L162 1244Q162
1311 200 1364T309 1447T471 1477Q603 1477 680 1406T758 1201V887Q758 790 784 706H618ZM477 828T521 847T594 896V1038H487Q400 1038 356 1006T311 922Q311 877 342 853T435 828Q477 828 521 847Z" />
<glyph unicode="&#xab;" glyph-name="guillemotleft" horiz-adv-x="961" d="M536 804L794 407H651L356 795V808V814L651 1202H794L536 804ZM612 548L870 151H727L432 539V552V558L727 946H870L612 548Z" />
<glyph unicode="&#xac;" glyph-name="logicalnot" horiz-adv-x="1135" d="M959 800V640V376H772V640H127V800H959Z" />
<glyph unicode="&#xad;" glyph-name="uni00AD" horiz-adv-x="600" d="M37 544V695H526V544H37Z" />
<glyph unicode="&#xae;" glyph-name="registered" horiz-adv-x="1609" d="M994 1476T1156 1378T1414 1108T1510 729Q1510 521 1415 350T1156 79T800 -21Q606 -21 444 78T186 349T90 729Q90 937 185 1108T443 1377T800 1476Q994 1476 1156 1378ZM961 98T1097 181T1313
409T1393 729Q1393 904 1314 1047T1098 1274T800 1357Q638 1357 502 1274T286 1048T206 729Q206 554 286 410T502 182T800 98Q961 98 1097 181ZM1105 460Q1105 376 1122 333V317H976Q963 351 963 461V513Q963 587 929 621T816 655H653V317H511V1165H788Q940 1165
1025 1101T1110 910Q1110 787 981 722Q1047 696 1076 643T1105 514V460ZM876 784T922 816T969 904Q969 955 952 984T896 1026T788 1039H653V782H809Q876 784 922 816Z" />
<glyph unicode="&#xaf;" glyph-name="overscore" horiz-adv-x="940" d="M143 1304V1445H815V1304H143Z" />
<glyph unicode="&#xb0;" glyph-name="degree" horiz-adv-x="765" d="M454 1477T511 1442T603 1347T637 1217Q637 1147 603 1088T512 995T386 961Q317 961 259 995T166 1088T131 1217Q131 1287 165 1346T259 1441T386 1477Q454 1477 511 1442ZM440 1088T476 1125T512
1217Q512 1274 476 1312T386 1350Q332 1350 294 1312T256 1217Q256 1162 294 1125T386 1088Q440 1088 476 1125Z" />
<glyph unicode="&#xb1;" glyph-name="plusminus" horiz-adv-x="1095" d="M1013 854V704H651V289H482V704H97V854H482V1267H651V854H1013ZM136 151H971V1H136V151Z" />
<glyph unicode="&#xb2;" glyph-name="uni00B2" horiz-adv-x="752" d="M84 667V775L373 1046Q437 1106 465 1150T493 1229Q493 1279 461 1309T370 1340Q298 1340 262 1303T225 1206H66Q66 1278 102 1337T207 1432T366 1467Q455 1467 519 1439T618 1357T652 1231Q652
1180 630 1135T568 1046T461 941L286 794H684V667H84Z" />
<glyph unicode="&#xb3;" glyph-name="uni00B3" horiz-adv-x="752" d="M667 1030T667 887Q667 815 628 763T519 684T361 656Q282 656 214 681T105 759T63 889H221Q221 843 261 813T366 783Q434 783 471 813T508 895Q508 956 468 983T350 1011H265V1088V1126H350Q421
1126 458 1156T495 1236Q495 1283 462 1311T363 1340Q306 1340 269 1315T232 1246H73Q73 1312 111 1362T214 1440T360 1467Q494 1467 573 1409T653 1243Q653 1187 618 1142T518 1072Q667 1030 667 887Z" />
<glyph unicode="&#xb4;" glyph-name="acute" horiz-adv-x="644" d="M542 1536L273 1243H123L317 1536H542Z" />
<glyph unicode="&#xb6;" glyph-name="paragraph" horiz-adv-x="1002" d="M646 520H559Q404 520 293 580T125 746T67 988Q67 1123 124 1229T293 1395T559 1456H834V0H646V520Z" />
<glyph unicode="&#xb7;" glyph-name="middot" horiz-adv-x="536" d="M317 840T347 809T378 729Q378 681 348 651T262 620Q208 620 178 650T147 729Q147 778 177 809T262 840Q317 840 347 809Z" />
<glyph unicode="&#xb8;" glyph-name="cedilla" horiz-adv-x="508" d="M274 -53Q341 -64 384 -105T427 -226Q427 -322 348 -378T123 -435L116 -329Q190 -329 236 -305T282 -230Q282 -196 266 -177T215 -149T121 -135L152 0H286L274 -53Z" />
<glyph unicode="&#xb9;" glyph-name="uni00B9" horiz-adv-x="752" d="M338 667V1270L123 1212V1340L478 1456H496V667H338Z" />
<glyph unicode="&#xba;" glyph-name="ordmasculine" horiz-adv-x="932" d="M123 1227T165 1307T284 1432T465 1477Q569 1477 646 1432T766 1307T808 1124V1043Q808 940 767 860T648 736T467 691Q363 691 285 735T165 860T123 1043V1124Q123 1227 165 1307ZM287
947T332 888T467 829Q553 829 598 888T644 1043V1124Q644 1219 598 1278T465 1337Q378 1337 333 1278T287 1124V1043Q287 947 332 888Z" />
<glyph unicode="&#xbb;" glyph-name="guillemotright" horiz-adv-x="961" d="M540 560V547V541L245 153H103L360 551L103 949H245L540 560ZM890 560V547V541L595 153H453L710 551L453 949H595L890 560Z" />
<glyph unicode="&#xbf;" glyph-name="questiondown" horiz-adv-x="970" d="M436 892T407 922T377 998Q377 1043 406 1072T488 1102Q540 1102 568 1073T597 998Q597 952 569 922T488 892Q436 892 407 922ZM589 586T573 528T524 423T420 299L396 274Q346 221 319
186T274 105T255 -1Q255 -110 312 -167T478 -225Q538 -225 589 -202T671 -133T703 -20H890Q889 -131 835 -214T688 -341T478 -386Q349 -386 257 -341T117 -211T68 -6Q68 79 102 155T188 295T313 431Q363 480 383 540T403 680H590Q589 586 573 528Z" />
<glyph unicode="&#xc0;" glyph-name="Agrave" horiz-adv-x="1338" d="M973 381H366L228 0H28L584 1456H712H754L1311 0H1112L973 381ZM916 538L669 1218L423 538H916ZM602 1554L343 1847H569L762 1554H602Z" />
<glyph unicode="&#xc1;" glyph-name="Aacute" horiz-adv-x="1338" d="M973 381H366L228 0H28L584 1456H712H754L1311 0H1112L973 381ZM916 538L669 1218L423 538H916ZM999 1847L730 1554H580L774 1847H999Z" />
<glyph unicode="&#xc2;" glyph-name="Acircumflex" horiz-adv-x="1338" d="M973 381H366L228 0H28L584 1456H712H754L1311 0H1112L973 381ZM916 538L669 1218L423 538H916ZM977 1564H823L673 1734L524 1564H371V1575L617 1847H729L977 1574V1564Z" />
<glyph unicode="&#xc3;" glyph-name="Atilde" horiz-adv-x="1338" d="M973 381H366L228 0H28L584 1456H712H754L1311 0H1112L973 381ZM916 538L669 1218L423 538H916ZM1028 1744T1000 1689T922 1604T812 1574Q765 1574 733 1587T664 1625Q632 1647 606 1658T545
1669Q502 1669 474 1637T445 1557L320 1564Q320 1635 348 1691T426 1778T535 1810Q573 1810 603 1798T675 1761Q713 1737 741 1726T803 1714Q845 1714 874 1746T903 1827L1028 1815Q1028 1744 1000 1689Z" />
<glyph unicode="&#xc4;" glyph-name="Adieresis" horiz-adv-x="1338" d="M973 381H366L228 0H28L584 1456H712H754L1311 0H1112L973 381ZM916 538L669 1218L423 538H916ZM512 1789T541 1759T570 1683Q570 1638 541 1609T460 1579Q408 1579 379 1608T350 1683Q350
1729 379 1759T460 1789Q512 1789 541 1759ZM942 1787T971 1757T1001 1681Q1001 1636 972 1607T890 1577Q838 1577 810 1606T781 1681Q781 1727 809 1757T890 1787Q942 1787 971 1757Z" />
<glyph unicode="&#xc5;" glyph-name="Aring" horiz-adv-x="1338" d="M973 381H366L228 0H28L584 1456H712H754L1311 0H1112L973 381ZM916 538L669 1218L423 538H916ZM733 1938T782 1911T859 1835T888 1730Q888 1673 860 1627T782 1554T673 1527Q612 1527 563 1553T486
1626T457 1730Q457 1787 485 1835T563 1910T673 1938Q733 1938 782 1911ZM723 1615T756 1649T789 1730Q789 1778 756 1813T673 1849Q623 1849 590 1814T557 1730Q557 1700 572 1674T613 1631T673 1615Q723 1615 756 1649Z" />
<glyph unicode="&#xc6;" glyph-name="AE" horiz-adv-x="1915" d="M1881 150V0H1148H996L981 354H418L213 0H-16L865 1456H985H1122H1819V1306H1128L1148 833H1738V683H1154L1177 150H1881ZM974 527L943 1261L518 527H974Z" />
<glyph unicode="&#xc7;" glyph-name="Ccedilla" horiz-adv-x="1333" d="M807 136T880 173T991 282T1047 462H1241Q1218 257 1095 128T750 -18L740 -63Q807 -74 850 -115T893 -236Q893 -332 814 -388T589 -445L582 -339Q656 -339 702 -315T748 -240Q748 -206 732
-187T681 -159T587 -145L617 -16Q466 1 354 88T180 321T119 654V801Q119 1003 190 1156T395 1392T706 1476Q867 1476 982 1416T1161 1246T1241 989H1047Q1024 1152 945 1235T706 1319Q579 1319 491 1255T359 1075T314 803V654Q314 506 355 389T480 204T688 136Q807
136 880 173Z" />
<glyph unicode="&#xc8;" glyph-name="Egrave" horiz-adv-x="1164" d="M1094 156V0H325H169V1456H363H1084V1299H363V830H992V674H363V156H1094ZM548 1565L289 1858H515L708 1565H548Z" />
<glyph unicode="&#xc9;" glyph-name="Eacute" horiz-adv-x="1164" d="M1094 156V0H325H169V1456H363H1084V1299H363V830H992V674H363V156H1094ZM945 1858L676 1565H526L720 1858H945Z" />
<glyph unicode="&#xca;" glyph-name="Ecircumflex" horiz-adv-x="1164" d="M1094 156V0H325H169V1456H363H1084V1299H363V830H992V674H363V156H1094ZM923 1575H769L619 1745L470 1575H317V1586L563 1858H675L923 1585V1575Z" />
<glyph unicode="&#xcb;" glyph-name="Edieresis" horiz-adv-x="1164" d="M1094 156V0H325H169V1456H363H1084V1299H363V830H992V674H363V156H1094ZM458 1800T487 1770T516 1694Q516 1649 487 1620T406 1590Q354 1590 325 1619T296 1694Q296 1740 325 1770T406
1800Q458 1800 487 1770ZM888 1798T917 1768T947 1692Q947 1647 918 1618T836 1588Q784 1588 756 1617T727 1692Q727 1738 755 1768T836 1798Q888 1798 917 1768Z" />
<glyph unicode="&#xcc;" glyph-name="Igrave" horiz-adv-x="558" d="M183 0V1456H377V0H183ZM208 1565L-51 1858H175L368 1565H208Z" />
<glyph unicode="&#xcd;" glyph-name="Iacute" horiz-adv-x="558" d="M183 0V1456H377V0H183ZM605 1858L336 1565H186L380 1858H605Z" />
<glyph unicode="&#xce;" glyph-name="Icircumflex" horiz-adv-x="558" d="M183 0V1456H377V0H183ZM583 1575H429L279 1745L130 1575H-23V1586L223 1858H335L583 1585V1575Z" />
<glyph unicode="&#xcf;" glyph-name="Idieresis" horiz-adv-x="558" d="M183 0V1456H377V0H183ZM118 1800T147 1770T176 1694Q176 1649 147 1620T66 1590Q14 1590 -15 1619T-44 1694Q-44 1740 -15 1770T66 1800Q118 1800 147 1770ZM548 1798T577 1768T607 1692Q607
1647 578 1618T496 1588Q444 1588 416 1617T387 1692Q387 1738 415 1768T496 1798Q548 1798 577 1768Z" />
<glyph unicode="&#xd0;" glyph-name="Eth" horiz-adv-x="1344" d="M771 1456T916 1373T1142 1134T1223 772V684Q1223 475 1143 321T913 83T563 0H259H169V666H6V816H169V1456H363H580Q771 1456 916 1373ZM1031 774Q1031 940 979 1057T825 1237T580 1299H363V816H644V666H363V156H563Q715
156 820 220T978 403T1031 684V774Z" />
<glyph unicode="&#xd1;" glyph-name="Ntilde" horiz-adv-x="1461" d="M1094 0L363 1126V0H169V1456H363L1097 327V1456H1289V0H1094ZM1081 1744T1053 1689T975 1604T865 1574Q818 1574 786 1587T717 1625Q685 1647 659 1658T598 1669Q555 1669 527 1637T498 1557L373
1564Q373 1635 401 1691T479 1778T588 1810Q626 1810 656 1798T728 1761Q766 1737 794 1726T856 1714Q898 1714 927 1746T956 1827L1081 1815Q1081 1744 1053 1689Z" />
<glyph unicode="&#xd2;" glyph-name="Ograve" horiz-adv-x="1410" d="M1290 465T1219 307T1015 65T706 -20Q534 -20 401 65T193 308T118 681V774Q118 988 192 1147T399 1391T704 1476Q881 1476 1013 1391T1218 1148T1290 774V681Q1290 465 1219 307ZM1098 948T1052
1068T917 1251T704 1313Q585 1313 496 1251T359 1068T311 776V681Q311 509 359 388T497 205T706 142Q894 142 996 281T1098 681V776Q1098 948 1052 1068ZM636 1556L377 1849H603L796 1556H636Z" />
<glyph unicode="&#xd3;" glyph-name="Oacute" horiz-adv-x="1410" d="M1290 465T1219 307T1015 65T706 -20Q534 -20 401 65T193 308T118 681V774Q118 988 192 1147T399 1391T704 1476Q881 1476 1013 1391T1218 1148T1290 774V681Q1290 465 1219 307ZM1098 948T1052
1068T917 1251T704 1313Q585 1313 496 1251T359 1068T311 776V681Q311 509 359 388T497 205T706 142Q894 142 996 281T1098 681V776Q1098 948 1052 1068ZM1033 1849L764 1556H614L808 1849H1033Z" />
<glyph unicode="&#xd4;" glyph-name="Ocircumflex" horiz-adv-x="1410" d="M1290 465T1219 307T1015 65T706 -20Q534 -20 401 65T193 308T118 681V774Q118 988 192 1147T399 1391T704 1476Q881 1476 1013 1391T1218 1148T1290 774V681Q1290 465 1219 307ZM1098
948T1052 1068T917 1251T704 1313Q585 1313 496 1251T359 1068T311 776V681Q311 509 359 388T497 205T706 142Q894 142 996 281T1098 681V776Q1098 948 1052 1068ZM1011 1566H857L707 1736L558 1566H405V1577L651 1849H763L1011 1576V1566Z" />
<glyph unicode="&#xd5;" glyph-name="Otilde" horiz-adv-x="1410" d="M1290 465T1219 307T1015 65T706 -20Q534 -20 401 65T193 308T118 681V774Q118 988 192 1147T399 1391T704 1476Q881 1476 1013 1391T1218 1148T1290 774V681Q1290 465 1219 307ZM1098 948T1052
1068T917 1251T704 1313Q585 1313 496 1251T359 1068T311 776V681Q311 509 359 388T497 205T706 142Q894 142 996 281T1098 681V776Q1098 948 1052 1068ZM1062 1746T1034 1691T956 1606T846 1576Q799 1576 767 1589T698 1627Q666 1649 640 1660T579 1671Q536 1671
508 1639T479 1559L354 1566Q354 1637 382 1693T460 1780T569 1812Q607 1812 637 1800T709 1763Q747 1739 775 1728T837 1716Q879 1716 908 1748T937 1829L1062 1817Q1062 1746 1034 1691Z" />
<glyph unicode="&#xd6;" glyph-name="Odieresis" horiz-adv-x="1410" d="M1290 465T1219 307T1015 65T706 -20Q534 -20 401 65T193 308T118 681V774Q118 988 192 1147T399 1391T704 1476Q881 1476 1013 1391T1218 1148T1290 774V681Q1290 465 1219 307ZM1098 948T1052
1068T917 1251T704 1313Q585 1313 496 1251T359 1068T311 776V681Q311 509 359 388T497 205T706 142Q894 142 996 281T1098 681V776Q1098 948 1052 1068ZM546 1791T575 1761T604 1685Q604 1640 575 1611T494 1581Q442 1581 413 1610T384 1685Q384 1731 413 1761T494
1791Q546 1791 575 1761ZM976 1789T1005 1759T1035 1683Q1035 1638 1006 1609T924 1579Q872 1579 844 1608T815 1683Q815 1729 843 1759T924 1789Q976 1789 1005 1759Z" />
<glyph unicode="&#xd7;" glyph-name="multiply" horiz-adv-x="1093" d="M870 204L540 541L209 204L89 326L420 663L91 998L211 1120L540 786L868 1120L988 998L660 663L990 326L870 204Z" />
<glyph unicode="&#xd8;" glyph-name="Oslash" horiz-adv-x="1410" d="M1151 1261Q1219 1171 1254 1048T1290 774V681Q1290 465 1219 307T1015 65T706 -20Q539 -20 404 62L308 -93H164L309 139Q217 231 168 369T118 681V774Q118 988 192 1147T399 1391T704 1476Q811
1476 902 1445T1066 1352L1169 1516H1310L1151 1261ZM311 439T408 297L972 1201Q872 1313 704 1313Q585 1313 496 1251T359 1068T311 776V681Q311 439 408 297ZM1098 961T1043 1088L495 207Q584 142 706 142Q894 142 996 281T1098 681V776Q1098 961 1043 1088Z"
/>
<glyph unicode="&#xd9;" glyph-name="Ugrave" horiz-adv-x="1328" d="M1195 471Q1195 313 1124 202T932 36T666 -20Q514 -20 396 35T209 201T140 471V1456H332V471Q332 305 421 221T666 136Q822 136 911 220T1000 471V1456H1195V471ZM596 1554L337 1847H563L756
1554H596Z" />
<glyph unicode="&#xda;" glyph-name="Uacute" horiz-adv-x="1328" d="M1195 471Q1195 313 1124 202T932 36T666 -20Q514 -20 396 35T209 201T140 471V1456H332V471Q332 305 421 221T666 136Q822 136 911 220T1000 471V1456H1195V471ZM993 1847L724 1554H574L768
1847H993Z" />
<glyph unicode="&#xdb;" glyph-name="Ucircumflex" horiz-adv-x="1328" d="M1195 471Q1195 313 1124 202T932 36T666 -20Q514 -20 396 35T209 201T140 471V1456H332V471Q332 305 421 221T666 136Q822 136 911 220T1000 471V1456H1195V471ZM971 1564H817L667 1734L518
1564H365V1575L611 1847H723L971 1574V1564Z" />
<glyph unicode="&#xdc;" glyph-name="Udieresis" horiz-adv-x="1328" d="M1195 471Q1195 313 1124 202T932 36T666 -20Q514 -20 396 35T209 201T140 471V1456H332V471Q332 305 421 221T666 136Q822 136 911 220T1000 471V1456H1195V471ZM506 1789T535 1759T564
1683Q564 1638 535 1609T454 1579Q402 1579 373 1608T344 1683Q344 1729 373 1759T454 1789Q506 1789 535 1759ZM936 1787T965 1757T995 1681Q995 1636 966 1607T884 1577Q832 1577 804 1606T775 1681Q775 1727 803 1757T884 1787Q936 1787 965 1757Z" />
<glyph unicode="&#xdd;" glyph-name="Yacute" horiz-adv-x="1230" d="M992 1456H1212L711 544V0H516V544L15 1456H237L614 724L992 1456ZM944 1846L675 1553H525L719 1846H944Z" />
<glyph unicode="&#xde;" glyph-name="Thorn" horiz-adv-x="1210" d="M784 1163T894 1109T1061 958T1118 738Q1118 615 1061 519T894 369T630 314H353V0H166V1456H353V1163H630Q784 1163 894 1109ZM732 464T799 502T899 602T931 736Q931 810 899 873T800 974T630
1013H353V464H630Q732 464 799 502Z" />
<glyph unicode="&#xdf;" glyph-name="germandbls" horiz-adv-x="1218" d="M139 0V1112Q139 1255 188 1354T326 1504T533 1554Q645 1554 729 1517T862 1405T910 1217Q910 1162 900 1119T875 1044T836 972Q808 926 795 894T782 820Q782 781 802 747T852 684T934
614Q998 563 1037 525T1103 435T1131 317Q1131 206 1083 131T947 18T746 -20Q664 -20 575 2T447 53L489 206Q534 178 599 154T726 130Q837 130 890 179T944 308Q944 349 924 383T874 446T793 516Q729 568 690 606T624 699T596 822Q596 876 613 918T666 1016Q700
1071 717 1111T734 1202Q734 1299 681 1351T543 1404Q438 1404 382 1332T325 1112V0H139Z" />
<glyph unicode="&#xe0;" glyph-name="agrave" horiz-adv-x="1115" d="M965 179T975 119T1003 16V0H808Q791 39 782 113Q726 53 648 17T475 -20Q367 -20 284 22T155 138T109 300Q109 415 168 495T337 615T596 656H778V742Q778 841 720 897T551 954Q484 954 431
931T349 868T319 782H132Q132 861 186 935T338 1055T562 1102Q682 1102 772 1062T914 940T965 740V236Q965 179 975 119ZM566 140T621 162T717 222T778 302V526H626Q466 526 381 476T296 326Q296 273 320 231T390 165T502 140Q566 140 621 162ZM511 1243L252 1536H478L671
1243H511Z" />
<glyph unicode="&#xe1;" glyph-name="aacute" horiz-adv-x="1115" d="M965 179T975 119T1003 16V0H808Q791 39 782 113Q726 53 648 17T475 -20Q367 -20 284 22T155 138T109 300Q109 415 168 495T337 615T596 656H778V742Q778 841 720 897T551 954Q484 954 431
931T349 868T319 782H132Q132 861 186 935T338 1055T562 1102Q682 1102 772 1062T914 940T965 740V236Q965 179 975 119ZM566 140T621 162T717 222T778 302V526H626Q466 526 381 476T296 326Q296 273 320 231T390 165T502 140Q566 140 621 162ZM908 1536L639 1243H489L683
1536H908Z" />
<glyph unicode="&#xe2;" glyph-name="acircumflex" horiz-adv-x="1115" d="M965 179T975 119T1003 16V0H808Q791 39 782 113Q726 53 648 17T475 -20Q367 -20 284 22T155 138T109 300Q109 415 168 495T337 615T596 656H778V742Q778 841 720 897T551 954Q484 954
431 931T349 868T319 782H132Q132 861 186 935T338 1055T562 1102Q682 1102 772 1062T914 940T965 740V236Q965 179 975 119ZM566 140T621 162T717 222T778 302V526H626Q466 526 381 476T296 326Q296 273 320 231T390 165T502 140Q566 140 621 162ZM885 1253H731L581
1423L432 1253H279V1264L525 1536H637L885 1263V1253Z" />
<glyph unicode="&#xe3;" glyph-name="atilde" horiz-adv-x="1115" d="M965 179T975 119T1003 16V0H808Q791 39 782 113Q726 53 648 17T475 -20Q367 -20 284 22T155 138T109 300Q109 415 168 495T337 615T596 656H778V742Q778 841 720 897T551 954Q484 954 431
931T349 868T319 782H132Q132 861 186 935T338 1055T562 1102Q682 1102 772 1062T914 940T965 740V236Q965 179 975 119ZM566 140T621 162T717 222T778 302V526H626Q466 526 381 476T296 326Q296 273 320 231T390 165T502 140Q566 140 621 162ZM936 1433T908 1378T830
1293T720 1263Q673 1263 641 1276T572 1314Q540 1336 514 1347T453 1358Q410 1358 382 1326T353 1246L228 1253Q228 1324 256 1380T334 1467T443 1499Q481 1499 511 1487T583 1450Q621 1426 649 1415T711 1403Q753 1403 782 1435T811 1516L936 1504Q936 1433 908
1378Z" />
<glyph unicode="&#xe4;" glyph-name="adieresis" horiz-adv-x="1115" d="M965 179T975 119T1003 16V0H808Q791 39 782 113Q726 53 648 17T475 -20Q367 -20 284 22T155 138T109 300Q109 415 168 495T337 615T596 656H778V742Q778 841 720 897T551 954Q484 954 431
931T349 868T319 782H132Q132 861 186 935T338 1055T562 1102Q682 1102 772 1062T914 940T965 740V236Q965 179 975 119ZM566 140T621 162T717 222T778 302V526H626Q466 526 381 476T296 326Q296 273 320 231T390 165T502 140Q566 140 621 162ZM421 1478T450 1448T479
1372Q479 1327 450 1298T369 1268Q317 1268 288 1297T259 1372Q259 1418 288 1448T369 1478Q421 1478 450 1448ZM851 1476T880 1446T910 1370Q910 1325 881 1296T799 1266Q747 1266 719 1295T690 1370Q690 1416 718 1446T799 1476Q851 1476 880 1446Z" />
<glyph unicode="&#xe5;" glyph-name="aring" horiz-adv-x="1115" d="M965 179T975 119T1003 16V0H808Q791 39 782 113Q726 53 648 17T475 -20Q367 -20 284 22T155 138T109 300Q109 415 168 495T337 615T596 656H778V742Q778 841 720 897T551 954Q484 954 431 931T349
868T319 782H132Q132 861 186 935T338 1055T562 1102Q682 1102 772 1062T914 940T965 740V236Q965 179 975 119ZM566 140T621 162T717 222T778 302V526H626Q466 526 381 476T296 326Q296 273 320 231T390 165T502 140Q566 140 621 162ZM642 1627T691 1600T768 1524T797
1419Q797 1362 769 1316T691 1243T582 1216Q521 1216 472 1242T395 1315T366 1419Q366 1476 394 1524T472 1599T582 1627Q642 1627 691 1600ZM632 1304T665 1338T698 1419Q698 1467 665 1502T582 1538Q532 1538 499 1503T466 1419Q466 1389 481 1363T522 1320T582
1304Q632 1304 665 1338Z" />
<glyph unicode="&#xe6;" glyph-name="ae" horiz-adv-x="1730" d="M1661 499H934Q937 392 973 309T1082 178T1263 130Q1336 130 1394 146T1490 183T1578 237L1643 102Q1588 57 1495 18T1263 -21Q1132 -21 1031 26T865 159Q807 83 698 31T433 -21Q321 -21 241 19T120
132T78 304Q78 463 193 549T527 635H748V720Q748 829 693 890T536 952Q464 952 409 926T323 856T292 760L106 778Q106 871 160 944T312 1060T536 1102Q652 1102 740 1060T876 937Q939 1016 1027 1059T1218 1102Q1360 1102 1459 1043T1610 875T1661 616V499ZM1474
671Q1474 795 1412 873T1218 952Q1140 952 1081 912T986 802T938 640H1474V671ZM542 129T620 167T748 257V497H529Q445 497 386 470T296 398T265 300Q265 224 317 177T470 129Q542 129 620 167Z" />
<glyph unicode="&#xe7;" glyph-name="ccedilla" horiz-adv-x="1073" d="M639 130T695 157T788 233T829 342H1006Q1001 251 946 170T800 38T603 -19L593 -63Q660 -74 703 -115T746 -236Q746 -332 667 -388T442 -445L435 -339Q509 -339 555 -315T601 -240Q601 -206
585 -187T534 -159T440 -145L471 -11Q347 12 262 88T135 276T92 520V562Q92 712 146 834T308 1029T574 1102Q698 1102 794 1051T946 911T1006 710H829Q824 777 791 832T702 920T574 952Q467 952 401 897T307 754T279 562V520Q279 354 347 242T574 130Q639 130 695
157Z" />
<glyph unicode="&#xe8;" glyph-name="egrave" horiz-adv-x="1087" d="M1012 490H280Q283 389 322 307T432 178T600 130Q694 130 762 168T885 277L998 189Q938 97 838 39T590 -20Q442 -20 329 47T155 233T93 503V546Q93 715 159 841T333 1035T566 1102Q717 1102
816 1035T964 848T1012 573V490ZM825 654Q817 781 757 866T566 952Q454 952 380 871T286 640H825V654ZM495 1243L236 1536H462L655 1243H495Z" />
<glyph unicode="&#xe9;" glyph-name="eacute" horiz-adv-x="1087" d="M1012 490H280Q283 389 322 307T432 178T600 130Q694 130 762 168T885 277L998 189Q938 97 838 39T590 -20Q442 -20 329 47T155 233T93 503V546Q93 715 159 841T333 1035T566 1102Q717 1102
816 1035T964 848T1012 573V490ZM825 654Q817 781 757 866T566 952Q454 952 380 871T286 640H825V654ZM891 1536L622 1243H472L666 1536H891Z" />
<glyph unicode="&#xea;" glyph-name="ecircumflex" horiz-adv-x="1087" d="M1012 490H280Q283 389 322 307T432 178T600 130Q694 130 762 168T885 277L998 189Q938 97 838 39T590 -20Q442 -20 329 47T155 233T93 503V546Q93 715 159 841T333 1035T566 1102Q717
1102 816 1035T964 848T1012 573V490ZM825 654Q817 781 757 866T566 952Q454 952 380 871T286 640H825V654ZM869 1253H715L565 1423L416 1253H263V1264L509 1536H621L869 1263V1253Z" />
<glyph unicode="&#xeb;" glyph-name="edieresis" horiz-adv-x="1087" d="M1012 490H280Q283 389 322 307T432 178T600 130Q694 130 762 168T885 277L998 189Q938 97 838 39T590 -20Q442 -20 329 47T155 233T93 503V546Q93 715 159 841T333 1035T566 1102Q717 1102
816 1035T964 848T1012 573V490ZM825 654Q817 781 757 866T566 952Q454 952 380 871T286 640H825V654ZM404 1478T433 1448T462 1372Q462 1327 433 1298T352 1268Q300 1268 271 1297T242 1372Q242 1418 271 1448T352 1478Q404 1478 433 1448ZM834 1476T863 1446T893
1370Q893 1325 864 1296T782 1266Q730 1266 702 1295T673 1370Q673 1416 701 1446T782 1476Q834 1476 863 1446Z" />
<glyph unicode="&#xec;" glyph-name="igrave" horiz-adv-x="508" d="M156 0V1082H342V0H156ZM182 1241L-77 1534H149L342 1241H182Z" />
<glyph unicode="&#xed;" glyph-name="iacute" horiz-adv-x="508" d="M156 0V1082H342V0H156ZM579 1534L310 1241H160L354 1534H579Z" />
<glyph unicode="&#xee;" glyph-name="icircumflex" horiz-adv-x="508" d="M156 0V1082H342V0H156ZM557 1251H403L253 1421L104 1251H-49V1262L197 1534H309L557 1261V1251Z" />
<glyph unicode="&#xef;" glyph-name="idieresis" horiz-adv-x="508" d="M156 0V1082H342V0H156ZM92 1476T121 1446T150 1370Q150 1325 121 1296T40 1266Q-12 1266 -41 1295T-70 1370Q-70 1416 -41 1446T40 1476Q92 1476 121 1446ZM522 1474T551 1444T581 1368Q581
1323 552 1294T470 1264Q418 1264 390 1293T361 1368Q361 1414 389 1444T470 1474Q522 1474 551 1444Z" />
<glyph unicode="&#xf0;" glyph-name="eth" horiz-adv-x="1201" d="M941 1175T1005 1006T1070 633V535Q1070 373 1010 247T843 50T602 -20Q464 -20 356 45T187 221T126 468Q126 619 184 735T344 914T574 978Q655 978 728 948T857 865Q807 1064 668 1200L451 1053L377
1152L570 1282Q437 1374 254 1422L312 1581Q551 1526 726 1388L915 1516L988 1417L820 1303Q941 1175 1005 1006ZM883 635Q883 674 882 692Q850 750 783 788T618 827Q522 827 454 784T349 659T313 468Q313 383 348 306T449 180T606 131Q690 131 752 183T849 327T883
535V635Z" />
<glyph unicode="&#xf1;" glyph-name="ntilde" horiz-adv-x="1131" d="M992 1102T992 709V0H805V711Q805 835 752 891T590 947Q504 947 436 900T327 774V0H140V1082H317L323 949Q382 1022 464 1062T645 1102Q992 1102 992 709ZM927 1433T899 1378T821 1293T711
1263Q664 1263 632 1276T563 1314Q531 1336 505 1347T444 1358Q401 1358 373 1326T344 1246L219 1253Q219 1324 247 1380T325 1467T434 1499Q472 1499 502 1487T574 1450Q612 1426 640 1415T702 1403Q744 1403 773 1435T802 1516L927 1504Q927 1433 899 1378Z"
/>
<glyph unicode="&#xf2;" glyph-name="ograve" horiz-adv-x="1169" d="M92 709T152 834T323 1030T583 1102Q733 1102 845 1031T1017 834T1077 552V529Q1077 372 1017 248T846 52T585 -20Q436 -20 325 51T153 247T92 529V552Q92 709 152 834ZM279 419T313 328T417
184T585 130Q683 130 752 183T855 328T890 529V552Q890 662 855 753T751 898T583 952Q485 952 417 898T314 753T279 552V529Q279 419 313 328ZM505 1243L246 1536H472L665 1243H505Z" />
<glyph unicode="&#xf3;" glyph-name="oacute" horiz-adv-x="1169" d="M92 709T152 834T323 1030T583 1102Q733 1102 845 1031T1017 834T1077 552V529Q1077 372 1017 248T846 52T585 -20Q436 -20 325 51T153 247T92 529V552Q92 709 152 834ZM279 419T313 328T417
184T585 130Q683 130 752 183T855 328T890 529V552Q890 662 855 753T751 898T583 952Q485 952 417 898T314 753T279 552V529Q279 419 313 328ZM901 1536L632 1243H482L676 1536H901Z" />
<glyph unicode="&#xf4;" glyph-name="ocircumflex" horiz-adv-x="1169" d="M92 709T152 834T323 1030T583 1102Q733 1102 845 1031T1017 834T1077 552V529Q1077 372 1017 248T846 52T585 -20Q436 -20 325 51T153 247T92 529V552Q92 709 152 834ZM279 419T313 328T417
184T585 130Q683 130 752 183T855 328T890 529V552Q890 662 855 753T751 898T583 952Q485 952 417 898T314 753T279 552V529Q279 419 313 328ZM879 1253H725L575 1423L426 1253H273V1264L519 1536H631L879 1263V1253Z" />
<glyph unicode="&#xf5;" glyph-name="otilde" horiz-adv-x="1169" d="M92 709T152 834T323 1030T583 1102Q733 1102 845 1031T1017 834T1077 552V529Q1077 372 1017 248T846 52T585 -20Q436 -20 325 51T153 247T92 529V552Q92 709 152 834ZM279 419T313 328T417
184T585 130Q683 130 752 183T855 328T890 529V552Q890 662 855 753T751 898T583 952Q485 952 417 898T314 753T279 552V529Q279 419 313 328ZM930 1433T902 1378T824 1293T714 1263Q667 1263 635 1276T566 1314Q534 1336 508 1347T447 1358Q404 1358 376 1326T347
1246L222 1253Q222 1324 250 1380T328 1467T437 1499Q475 1499 505 1487T577 1450Q615 1426 643 1415T705 1403Q747 1403 776 1435T805 1516L930 1504Q930 1433 902 1378Z" />
<glyph unicode="&#xf6;" glyph-name="odieresis" horiz-adv-x="1169" d="M92 709T152 834T323 1030T583 1102Q733 1102 845 1031T1017 834T1077 552V529Q1077 372 1017 248T846 52T585 -20Q436 -20 325 51T153 247T92 529V552Q92 709 152 834ZM279 419T313 328T417
184T585 130Q683 130 752 183T855 328T890 529V552Q890 662 855 753T751 898T583 952Q485 952 417 898T314 753T279 552V529Q279 419 313 328ZM414 1478T443 1448T472 1372Q472 1327 443 1298T362 1268Q310 1268 281 1297T252 1372Q252 1418 281 1448T362 1478Q414
1478 443 1448ZM844 1476T873 1446T903 1370Q903 1325 874 1296T792 1266Q740 1266 712 1295T683 1370Q683 1416 711 1446T792 1476Q844 1476 873 1446Z" />
<glyph unicode="&#xf7;" glyph-name="divide" horiz-adv-x="1170" d="M631 1210T661 1179T692 1098Q692 1051 662 1020T576 989Q521 989 491 1019T461 1098Q461 1147 491 1178T576 1210Q631 1210 661 1179ZM71 601V784H1069V601H71ZM631 393T661 362T692 282Q692
235 662 204T576 173Q521 173 491 203T461 282Q461 331 491 362T576 393Q631 393 661 362Z" />
<glyph unicode="&#xf8;" glyph-name="oslash" horiz-adv-x="1161" d="M976 930T1026 813T1077 552V529Q1077 372 1017 248T846 52T585 -20Q482 -20 395 15L321 -135H197L298 69Q200 142 146 262T92 529V552Q92 709 152 834T323 1030T583 1102Q696 1102 787 1061L860
1209H984L883 1004Q976 930 1026 813ZM278 437T302 358T374 224L717 920Q656 952 583 952Q485 952 417 898T313 753T278 552V529Q278 437 302 358ZM890 552Q890 638 868 713T804 845L464 155Q519 130 585 130Q683 130 752 183T855 328T890 529V552Z" />
<glyph unicode="&#xf9;" glyph-name="ugrave" horiz-adv-x="1129" d="M989 1082V0H811L808 107Q700 -20 491 -20Q324 -20 230 78T136 384V1082H323V382Q323 247 378 192T521 136Q731 136 802 293V1082H989ZM497 1243L238 1536H464L657 1243H497Z" />
<glyph unicode="&#xfa;" glyph-name="uacute" horiz-adv-x="1129" d="M989 1082V0H811L808 107Q700 -20 491 -20Q324 -20 230 78T136 384V1082H323V382Q323 247 378 192T521 136Q731 136 802 293V1082H989ZM893 1536L624 1243H474L668 1536H893Z" />
<glyph unicode="&#xfb;" glyph-name="ucircumflex" horiz-adv-x="1129" d="M989 1082V0H811L808 107Q700 -20 491 -20Q324 -20 230 78T136 384V1082H323V382Q323 247 378 192T521 136Q731 136 802 293V1082H989ZM871 1253H717L567 1423L418 1253H265V1264L511
1536H623L871 1263V1253Z" />
<glyph unicode="&#xfc;" glyph-name="udieresis" horiz-adv-x="1129" d="M989 1082V0H811L808 107Q700 -20 491 -20Q324 -20 230 78T136 384V1082H323V382Q323 247 378 192T521 136Q731 136 802 293V1082H989ZM407 1478T436 1448T465 1372Q465 1327 436 1298T355
1268Q303 1268 274 1297T245 1372Q245 1418 274 1448T355 1478Q407 1478 436 1448ZM837 1476T866 1446T896 1370Q896 1325 867 1296T785 1266Q733 1266 705 1295T676 1370Q676 1416 704 1446T785 1476Q837 1476 866 1446Z" />
<glyph unicode="&#xfd;" glyph-name="yacute" horiz-adv-x="969" d="M944 1082L510 -167Q470 -276 395 -356T189 -437Q168 -437 135 -432T84 -421V-272Q95 -274 109 -275T134 -277Q229 -277 281 -238T367 -99L408 12L22 1082H226L494 272L745 1082H944ZM834 1536L565
1243H415L609 1536H834Z" />
<glyph unicode="&#xfe;" glyph-name="thorn" horiz-adv-x="1181" d="M776 1102T871 1034T1015 841T1065 550V529Q1065 370 1016 246T871 51T645 -20Q449 -20 336 104V-416H149V1536H336V973Q449 1102 642 1102Q776 1102 871 1034ZM878 550Q878 662 847 751T750
894T587 947Q499 947 437 907T336 798V277Q419 130 589 130Q685 130 750 183T846 327T878 529V550Z" />
<glyph unicode="&#xff;" glyph-name="ydieresis" horiz-adv-x="969" d="M944 1082L510 -167Q470 -276 395 -356T189 -437Q168 -437 135 -432T84 -421V-272Q95 -274 109 -275T134 -277Q229 -277 281 -238T367 -99L408 12L22 1082H226L494 272L745 1082H944ZM347
1478T376 1448T405 1372Q405 1327 376 1298T295 1268Q243 1268 214 1297T185 1372Q185 1418 214 1448T295 1478Q347 1478 376 1448ZM777 1476T806 1446T836 1370Q836 1325 807 1296T725 1266Q673 1266 645 1295T616 1370Q616 1416 644 1446T725 1476Q777 1476 806
1446Z" />
<glyph unicode="&#x2013;" glyph-name="endash" horiz-adv-x="1344" d="M162 652V802H1164V652H162Z" />
<glyph unicode="&#x2014;" glyph-name="emdash" horiz-adv-x="1599" d="M145 652V802H1481V652H145Z" />
<glyph unicode="&#x2018;" glyph-name="quoteleft" horiz-adv-x="411" d="M96 1289T143 1389T272 1556L378 1484Q329 1416 305 1347T281 1198V1074H96V1195Q96 1289 143 1389Z" />
<glyph unicode="&#x2019;" glyph-name="quoteright" horiz-adv-x="411" d="M329 1314T282 1214T154 1047L48 1119Q96 1186 120 1256T144 1406V1536H329V1408Q329 1314 282 1214Z" />
<glyph unicode="&#x201a;" glyph-name="quotesinglbase" horiz-adv-x="409" d="M317 -15T270 -115T142 -282L36 -210Q84 -143 107 -73T131 76V183H317V79Q317 -15 270 -115Z" />
<glyph unicode="&#x201c;" glyph-name="quotedblleft" horiz-adv-x="727" d="M105 1289T152 1389T281 1556L387 1484Q338 1416 314 1347T290 1198V1074H105V1195Q105 1289 152 1389ZM421 1289T468 1389T597 1556L703 1484Q654 1416 630 1347T606 1198V1074H421V1195Q421
1289 468 1389Z" />
<glyph unicode="&#x201d;" glyph-name="quotedblright" horiz-adv-x="734" d="M341 1314T294 1214T166 1047L60 1119Q108 1186 132 1256T156 1406V1536H341V1408Q341 1314 294 1214ZM649 1314T602 1214T474 1047L368 1119Q416 1186 440 1256T464 1406V1536H649V1408Q649
1314 602 1214Z" />
<glyph unicode="&#x201e;" glyph-name="quotedblbase" horiz-adv-x="709" d="M317 -20T270 -125T142 -300L36 -228Q84 -157 107 -83T131 76V246H317V79Q317 -20 270 -125ZM615 -20T568 -125T440 -300L334 -228Q381 -157 404 -83T428 76V246H615V79Q615 -20 568 -125Z" />
<glyph unicode="&#x2022;" glyph-name="bullet" horiz-adv-x="691" d="M139 829T164 874T235 944T342 970Q405 970 451 945T522 875T547 772V732Q547 644 492 590T343 536Q281 536 235 561T164 630T139 732V772Q139 829 164 874Z" />
<glyph unicode="&#x2039;" glyph-name="guilsinglleft" horiz-adv-x="615" d="M288 551L546 154H403L108 542V555V561L403 949H546L288 551Z" />
<glyph unicode="&#x203a;" glyph-name="guilsinglright" horiz-adv-x="615" d="M527 560V547V541L232 153H90L347 551L90 949H232L527 560Z" />
</font>
</defs>
</svg>
